<?xml version="1.0" standalone="no"?>
<!DOCTYPE svg PUBLIC "-//W3C//DTD SVG 1.1//EN" "http://www.w3.org/Graphics/SVG/1.1/DTD/svg11.dtd" >
<svg>
<metadata>
Created by FontForge 20110222 at Thu Sep  5 07:04:38 2013
 By Orthosie Webhosting
Copyright (c) 1989, 1991, 2002 Adobe Systems Incorporated.  All Rights Reserved.
</metadata>
<defs>
<font id="BauerBodoniStd1Roman" horiz-adv-x="278" >
  <font-face 
    font-family="BauerBodoniStd1Roman"
    font-weight="400"
    font-stretch="normal"
    units-per-em="1000"
    panose-1="2 7 6 3 8 7 6 2 3 3"
    ascent="735"
    descent="-265"
    x-height="410"
    cap-height="704"
    bbox="-170 -280 1000 941"
    underline-thickness="50"
    underline-position="-50"
    unicode-range="U+0020-FB02"
  />
<missing-glyph horiz-adv-x="500" 
d="M0 0v700h500v-700h-500zM250 395l170 255h-340zM280 350l170 -255v510zM80 50h340l-170 255zM50 605v-510l170 255z" />
    <glyph glyph-name="f_i" unicode="fi" horiz-adv-x="556" 
d="M112 16v378h-90v16h90v66q0 104 58 181.5t162 77.5q54 0 95 -22t41 -71q0 -25 -13.5 -39.5t-36.5 -14.5q-20 0 -33 13t-13 32q0 20 14 29.5t27.5 13t13.5 11.5q0 11 -24.5 21.5t-57.5 10.5q-88 0 -118.5 -40t-30.5 -124v-145h179q62 0 84 22v-416h80v-16h-237v16h73v378
h-179v-378h77v-16h-251v16h90z" />
    <glyph glyph-name="f_l" unicode="fl" horiz-adv-x="556" 
d="M112 16v378h-90v16h90v34q0 67 15.5 120.5t37.5 84.5t50 51.5t50.5 27.5t41.5 7q61 0 93 -39l59 37v-717h80v-16h-237v16h73v575q-6 -3 -17 -3q-10 0 -22.5 10t-12.5 30q0 21 12.5 33.5t24.5 18t12 10.5q0 14 -19.5 21.5t-41.5 7.5q-19 0 -36 -4.5t-36.5 -17t-31 -40
t-11.5 -67.5v-180h103v-16h-103v-378h77v-16h-251v16h90z" />
    <glyph glyph-name=".notdef" horiz-adv-x="500" 
d="M0 0v700h500v-700h-500zM250 395l170 255h-340zM280 350l170 -255v510zM80 50h340l-170 255zM50 605v-510l170 255z" />
    <glyph glyph-name=".null" horiz-adv-x="0" 
 />
    <glyph glyph-name="nonmarkingreturn" horiz-adv-x="333" 
 />
    <glyph glyph-name="space" unicode=" " 
 />
    <glyph glyph-name="exclam" unicode="!" horiz-adv-x="388" 
d="M186 148v58q0 95 -12 214t-40 190q28 37 55 102q3 8 5 8t5 -8q27 -65 55 -102q-28 -71 -40 -190t-12 -214v-58h-16zM194 90q20 0 35.5 -15t15.5 -36t-15.5 -36t-35.5 -15q-21 0 -36 15t-15 36t15 36t36 15z" />
    <glyph glyph-name="quotedbl" unicode="&#x22;" horiz-adv-x="500" 
d="M355 621l-16 -160q-4 -28 -17 -28t-17 28l-16 160q-3 22 -3 44q0 55 36 55t36 -55q0 -7 -0.5 -14t-1.5 -16t-1 -14zM211 621l-16 -160q-4 -28 -17 -28t-17 28l-16 160q-3 23 -3 44q0 55 36 55t36 -55q0 -7 -0.5 -14t-1.5 -16t-1 -14z" />
    <glyph glyph-name="numbersign" unicode="#" horiz-adv-x="556" 
d="M106 0l32 225h-108v48h114l22 152h-108v48h114l32 225h56l-32 -225h135l31 225h56l-32 -225h108v-48h-114l-22 -152h108v-48h-114l-32 -225h-56l32 225h-134l-32 -225h-56zM335 273l21 152h-134l-22 -152h135z" />
    <glyph glyph-name="dollar" unicode="$" horiz-adv-x="556" 
d="M273 305v-299q5 -2 16 -2q72 0 118.5 41t46.5 107q0 27 -6 48t-13 35.5t-24 26t-27.5 17.5t-35 12t-35.5 8t-40 6zM257 420v273q-4 1 -11 1q-68 0 -109 -38.5t-41 -104.5q0 -35 12 -59t37 -38t49.5 -21t62.5 -13zM257 -159v149q-46 4 -98 26.5t-64 22.5q-25 0 -25 -41
h-16v248h16q0 -108 52 -168.5t135 -70.5v301q-36 5 -59.5 10.5t-52 20t-45.5 35.5t-28.5 57.5t-11.5 85.5q0 84 50.5 138.5t136.5 54.5q7 0 10 -1v65h16v-66q46 -5 91.5 -31.5t52.5 -26.5q5 0 9 1t6.5 3t5 5t4 5t3 6t2 6l1.5 6t1 5h16v-206h-16q-6 86 -51 144t-125 67v-275
q40 -7 66 -13.5t60.5 -22t54 -36t34 -56.5t14.5 -84q0 -93 -56.5 -155t-160.5 -62q-8 0 -12 1v-148h-16z" />
    <glyph glyph-name="percent" unicode="%" horiz-adv-x="889" 
d="M522 167q0 78 38 128.5t105 50.5t105 -50.5t38 -128.5t-38 -128.5t-105 -50.5t-105 50.5t-38 128.5zM594 167v-25t0.5 -25.5t2.5 -28t5 -25t8.5 -24.5t12.5 -17.5t18 -13.5t24 -4t24 4t18 13.5t12.5 17.5t8.5 24.5t5 25t2.5 28t0.5 25.5v25v25t-0.5 25.5t-2.5 28t-5 25
t-8.5 24.5t-12.5 17.5t-18 13.5t-24 4t-24 -4t-18 -13.5t-12.5 -17.5t-8.5 -24.5t-5 -25t-2.5 -28t-0.5 -25.5v-25zM153 531v-25t0.5 -25.5t2.5 -28t5 -25t8.5 -24.5t12.5 -17.5t18 -13.5t24 -4t24 4t18 13.5t12.5 17.5t8.5 24.5t5 25t2.5 28t0.5 25.5v25v25t-0.5 25.5
t-2.5 28t-5 25t-8.5 24.5t-12.5 17.5t-18 13.5t-24 4t-24 -4t-18 -13.5t-12.5 -17.5t-8.5 -24.5t-5 -25t-2.5 -28t-0.5 -25.5v-25zM81 531q0 78 38 128.5t105 50.5t105 -50.5t38 -128.5t-38 -128.5t-105 -50.5t-105 50.5t-38 128.5zM235 -22l376 742h43l-376 -742h-43z" />
    <glyph glyph-name="ampersand" unicode="&#x26;" horiz-adv-x="778" 
d="M428 547q0 45 -25 70t-65 25q-34 0 -54 -21t-20 -56q0 -46 70 -152q41 19 67.5 55t26.5 79zM734 136l13 -5q-14 -30 -24.5 -49t-29 -44t-41.5 -37.5t-51 -12.5q-32 0 -76.5 34t-88.5 94q-91 -128 -189 -128q-67 0 -117 50t-50 117q0 106 176 205q-2 3 -12 19t-14 22.5
t-12.5 21t-12.5 24t-9.5 22.5t-7.5 24.5t-2 22.5q0 60 42 101t102 41q52 0 83 -30t31 -80t-26 -84.5t-75 -63.5q74 -106 142 -195q5 7 27 37t35 46t36 32t45 16q27 0 45 -17t18 -48q0 -25 -15.5 -40t-40.5 -15q-22 0 -34.5 14.5t-12.5 33.5q0 25 -10 25q-8 0 -35 -30.5
t-49 -67.5q48 -62 86 -96.5t75 -34.5q25 0 46.5 25.5t32.5 50.5zM164 219q0 -53 45.5 -112t97.5 -59q28 0 51 13t34.5 26t33.5 43q-31 39 -162 219q-4 -3 -22.5 -14.5t-22.5 -14.5t-17.5 -13.5t-17 -17t-10 -18t-8.5 -24t-2 -28.5z" />
    <glyph glyph-name="quotesingle" unicode="'" 
d="M172 621l-16 -160q-4 -28 -17 -28t-17 28l-16 160q-3 23 -3 44q0 55 36 55t36 -55q0 -7 -0.5 -14t-1.5 -16t-1 -14z" />
    <glyph glyph-name="parenleft" unicode="(" horiz-adv-x="389" 
d="M283 741l28 -21q-163 -190 -163 -475t163 -475l-28 -21q-177 197 -177 496t177 496z" />
    <glyph glyph-name="parenright" unicode=")" horiz-adv-x="389" 
d="M106 -251l-28 21q163 190 163 475t-163 475l28 21q177 -197 177 -496t-177 -496z" />
    <glyph glyph-name="asterisk" unicode="*" horiz-adv-x="500" 
d="M87 396q0 6 15 12q91 37 130 79q-62 24 -123 24q-6 0 -18 -1t-18 -1q-9 0 -9 10q0 4 5.5 11.5t10.5 11.5q-34 24 -34 36q0 6 20 6q12 0 32 -5q0 30 11 30q4 0 20 -19.5t46 -47t62 -42.5q1 9 1 29q0 36 -8 65.5t-15.5 45t-7.5 19.5q0 10 13 10q9 0 23 -8q12 43 26 43
q7 0 11 -17.5t4 -32.5q10 8 22 8q9 0 9 -10q0 -3 -14 -23.5t-30 -56t-20 -73.5q87 22 129 64q13 13 17 13q10 0 10 -33q47 0 47 -13q0 -10 -44 -28q16 -12 16 -24q0 -8 -9 -8q-3 0 -18.5 5t-40 9.5t-47.5 4.5q-25 0 -56 -3q25 -37 49 -61.5t38 -32.5t23 -14t9 -12
q0 -11 -29 -16q7 -21 7 -36t-6 -15q-12 0 -38 32q-14 -20 -24 -20q-6 0 -6 25q0 79 -36 141q-54 -64 -64 -120q-4 -30 -15 -30q-8 0 -21 23q-27 -21 -40 -21q-7 0 -7 10q0 7 6 20t12 20q-26 4 -26 17z" />
    <glyph glyph-name="plus" unicode="+" horiz-adv-x="600" 
d="M270 283v223h60v-223h223v-60h-223v-223h-60v223h-223v60h223z" />
    <glyph glyph-name="comma" unicode="," 
d="M119 -197l-11 11q46 40 68 78t22 93q0 80 -62 89l-2 -2q20 -13 20 -41q0 -38 -45 -38q-20 0 -32.5 12.5t-12.5 32.5q0 23 16 37.5t42 14.5q46 0 69 -31t23 -77q0 -98 -95 -179z" />
    <glyph glyph-name="hyphen" unicode="-" horiz-adv-x="389" 
d="M65 211l16 60q126 -4 243 0l-16 -60q-121 5 -243 0z" />
    <glyph glyph-name="period" unicode="." 
d="M139 90q20 0 35.5 -15t15.5 -36t-15.5 -36t-35.5 -15q-21 0 -36 15t-15 36t15 36t36 15z" />
    <glyph glyph-name="slash" unicode="/" horiz-adv-x="389" 
d="M14 -16l297 736h64l-297 -736h-64z" />
    <glyph glyph-name="zero" unicode="0" horiz-adv-x="556" 
d="M149 349v-21v-54t2.5 -58.5t7 -63t13.5 -55.5t22.5 -49t35 -31t48.5 -13q24 0 43.5 9.5t32.5 25.5t23 38t15 47t9 52t4.5 54t1.5 52t0 46v21v21v54t-2.5 58.5t-7 63t-13.5 55.5t-22.5 49t-35 31t-48.5 13q-24 0 -43.5 -9.5t-32.5 -25.5t-23 -38t-15 -47t-9 -52t-4.5 -54
t-1.5 -52t0 -46v-21zM53 349q0 153 58 257t167 104t167 -104t58 -257t-58 -257t-167 -104t-167 104t-58 257z" />
    <glyph glyph-name="one" unicode="1" horiz-adv-x="556" 
d="M256 16v552q0 24 -11 24q-21 0 -159 -75v17q145 80 225 164h41v-682h92v-16h-282v16h94z" />
    <glyph glyph-name="two" unicode="2" horiz-adv-x="556" 
d="M500 193l-24 -193h-437q18 50 61 99.5t89.5 89.5t91 85.5t73.5 107.5t29 135q0 77 -37.5 127t-109.5 50q-56 0 -104.5 -36.5t-48.5 -92.5q0 -17 7.5 -22.5t25.5 -5.5q50 0 50 -45q1 -26 -16 -39.5t-37 -11.5q-26 0 -44 27.5t-16 58.5q0 91 59.5 137t149.5 46
q92 0 154.5 -54.5t62.5 -149.5q0 -50 -21.5 -91t-61.5 -77t-83.5 -68.5t-101 -82.5t-101.5 -103h358l15 109h17z" />
    <glyph glyph-name="three" unicode="3" horiz-adv-x="556" 
d="M116 385v16h74q48 0 75.5 4t53 19.5t36.5 48t11 86.5q0 135 -124 135q-52 0 -92 -26t-40 -46q0 -7 3 -7q1 0 6 1t10 1q47 0 47 -48q0 -20 -13.5 -31t-30.5 -11q-24 0 -38 17t-14 38q0 62 53.5 95t120.5 33q82 0 142 -39.5t60 -111.5q0 -36 -13.5 -64t-30.5 -44t-44.5 -29
t-44.5 -17.5t-41 -9.5v-2q24 -2 48.5 -8t53.5 -20.5t50.5 -35t36.5 -55t15 -77.5q0 -65 -43 -114.5t-101.5 -72t-116.5 -22.5q-47 0 -88 12.5t-72 46.5t-31 85q0 23 17 43t43 20q53 0 53 -53q0 -22 -15.5 -35.5t-34.5 -13.5q-5 0 -12 1.5t-11 1.5q-10 0 -10 -10
q0 -33 50 -57.5t96 -24.5q98 0 139 48.5t41 145.5q0 33 -6.5 62t-22 59t-49.5 48t-82 18h-114z" />
    <glyph glyph-name="four" unicode="4" horiz-adv-x="556" 
d="M312 16v231h-289l361 473h19l-311 -407h220v246h90v-246h100v-66h-100v-231h91v-16h-275v16h94z" />
    <glyph glyph-name="five" unicode="5" horiz-adv-x="556" 
d="M420 710h9q1 -9 1 -24q0 -43 -32 -62t-71 -19q-27 0 -79 7.5t-67 7.5q-43 0 -58 -19q3 -63 3 -74q0 -53 -14 -137q57 36 140 36q102 0 176 -58t74 -155q0 -106 -81 -165.5t-194 -59.5q-78 0 -130 35t-52 103q0 28 15.5 47.5t47.5 19.5q20 0 33.5 -14t13.5 -33
q0 -21 -12 -32t-32 -11q-36 0 -36 -17q0 -33 41.5 -57.5t105.5 -24.5q184 0 184 203q0 88 -43.5 145.5t-127.5 57.5t-130 -44h-15q7 15 13.5 69t6.5 100q0 57 -16 145q48 24 114 24q47 0 108.5 -10.5t77.5 -10.5q26 0 26 27z" />
    <glyph glyph-name="six" unicode="6" horiz-adv-x="556" 
d="M459 720l4 -16q-154 -26 -226.5 -107.5t-89.5 -243.5h2q21 38 62 64.5t92 26.5q86 0 144 -59.5t58 -161.5q0 -98 -63.5 -166.5t-163.5 -68.5q-78 0 -130.5 40t-74.5 101.5t-22 140.5q0 175 117.5 298t290.5 152zM409 226q0 42 -5 73.5t-17 63t-37 48.5t-62 17
q-45 0 -85.5 -33.5t-52.5 -80.5q-3 -39 -3 -42q0 -40 1 -67t5 -61t13 -56.5t23 -43t36.5 -30.5t52.5 -10q131 0 131 222z" />
    <glyph glyph-name="seven" unicode="7" horiz-adv-x="556" 
d="M44 527l23 171h450l-133 -272q-48 -99 -91 -202t-43 -133q0 -10 10 -10q4 0 12.5 1.5t11.5 1.5q21 0 34.5 -11.5t13.5 -33.5q0 -23 -13.5 -34t-34.5 -11q-23 0 -36.5 19t-13.5 52q0 25 6.5 56t23 77.5t30 80.5t43 106t45.5 113l46 116h-345q-18 -60 -23 -87h-16z" />
    <glyph glyph-name="eight" unicode="8" horiz-adv-x="556" 
d="M172 547q0 -111 53 -142q36 -21 53 -21t53 21q53 31 53 142q0 28 -1.5 46t-7.5 39t-17 33t-31 20.5t-49 8.5t-49 -8.5t-31 -20.5t-17 -33t-7.5 -39t-1.5 -46zM82 547q0 74 59.5 118.5t136.5 44.5t136.5 -44.5t59.5 -118.5q0 -40 -14 -69.5t-42 -48.5t-53 -30t-62 -22v-2
q206 -69 206 -201q0 -63 -36.5 -107t-87 -61.5t-107.5 -17.5t-107.5 17.5t-87 61.5t-36.5 107q0 132 206 201v2q-37 11 -62 22t-53 30t-42 48.5t-14 69.5zM143 171q0 -74 32 -120.5t103 -46.5t103 46.5t32 120.5q0 89 -38 140q-20 26 -50 41.5t-47 15.5t-47 -15.5t-50 -41.5
q-38 -51 -38 -140z" />
    <glyph glyph-name="nine" unicode="9" horiz-adv-x="556" 
d="M147 472q0 -42 5 -73.5t17 -63t37 -48.5t62 -17q45 0 85.5 33.5t52.5 80.5q3 39 3 42q0 40 -1 67t-5 61t-13 56.5t-23 43t-36.5 30.5t-52.5 10q-131 0 -131 -222zM97 -22l-4 16q154 26 226.5 107.5t89.5 243.5h-2q-21 -38 -62 -64.5t-92 -26.5q-86 0 -144 59.5t-58 161.5
q0 98 63.5 166.5t163.5 68.5q78 0 130.5 -40t74.5 -101.5t22 -140.5q0 -175 -117.5 -298t-290.5 -152z" />
    <glyph glyph-name="colon" unicode=":" 
d="M139 378q20 0 35.5 -15t15.5 -36t-15.5 -36t-35.5 -15q-21 0 -36 15t-15 36t15 36t36 15zM139 90q20 0 35.5 -15t15.5 -36t-15.5 -36t-35.5 -15q-21 0 -36 15t-15 36t15 36t36 15z" />
    <glyph glyph-name="semicolon" unicode=";" 
d="M119 -197l-11 11q46 40 68 78t22 93q0 80 -62 89l-2 -2q20 -13 20 -41q0 -38 -45 -38q-20 0 -32.5 12.5t-12.5 32.5q0 23 16 37.5t42 14.5q46 0 69 -31t23 -77q0 -98 -95 -179zM139 378q20 0 35.5 -15t15.5 -36t-15.5 -36t-35.5 -15q-21 0 -36 15t-15 36t15 36t36 15z
" />
    <glyph glyph-name="less" unicode="&#x3c;" horiz-adv-x="600" 
d="M553 -8l-506 231v60l506 231v-62l-435 -199l435 -199v-62z" />
    <glyph glyph-name="equal" unicode="=" horiz-adv-x="600" 
d="M47 321v60h506v-60h-506zM47 125v60h506v-60h-506z" />
    <glyph glyph-name="greater" unicode="&#x3e;" horiz-adv-x="600" 
d="M47 514l506 -231v-60l-506 -231v62l435 199l-435 199v62z" />
    <glyph glyph-name="question" unicode="?" horiz-adv-x="500" 
d="M196 149l-13 -3q-17 68 -17 123q0 49 20.5 88t50 65t58.5 50t49.5 55t20.5 68q0 51 -38 80t-90 29q-33 0 -64.5 -17t-31.5 -43q0 -9 10.5 -13t22.5 -5.5t22.5 -12.5t10.5 -32q0 -22 -13.5 -33.5t-35.5 -11.5q-24 0 -38.5 21t-14.5 45q0 50 39 84t93 34q75 0 116.5 -47
t41.5 -123q0 -60 -17.5 -95t-50.5 -65q-83 -77 -110 -110.5t-27 -72.5q0 -30 6 -58zM194 90q20 0 35.5 -15t15.5 -36t-15.5 -36t-35.5 -15q-21 0 -36 15t-15 36t15 36t36 15z" />
    <glyph glyph-name="at" unicode="@" horiz-adv-x="800" 
d="M321 285q0 -90 64 -90q48 0 90.5 74.5t42.5 170.5q0 58 -49 58q-45 0 -96.5 -61.5t-51.5 -151.5zM619 527l-71 -276q-3 -14 -3 -29t10 -27t33 -12q66 0 106 68.5t40 153.5q0 47 -21.5 95.5t-60 90t-100 67.5t-133.5 26q-138 0 -221.5 -93t-83.5 -266q0 -121 88 -213
t228 -92q127 0 221 48l10 -21q-111 -63 -230 -63q-99 0 -179.5 34.5t-126.5 88t-70.5 113t-24.5 116.5q0 169 112 276.5t277 107.5q145 0 245 -90t100 -224q0 -104 -52.5 -178.5t-139.5 -74.5q-43 0 -71 19.5t-28 60.5h-2q-9 -20 -46 -50t-74 -30q-15 0 -28.5 3.5t-32 15.5
t-30 41t-11.5 72q0 102 61 178.5t144 76.5q28 0 49 -17.5t30 -42.5h2l11 47h73z" />
    <glyph glyph-name="A" unicode="A" horiz-adv-x="667" 
d="M462 16l-72 212h-214l-41 -126q-15 -43 -15 -61q0 -25 44 -25h52v-16h-206v16h32q26 0 38 10t25 49l215 645h11l243 -704h83v-16h-293v16h98zM385 244l-103 303h-2l-98 -303h203z" />
    <glyph glyph-name="B" unicode="B" horiz-adv-x="611" 
d="M207 688v-306h66q39 0 66 5.5t53 21t39.5 48t13.5 81.5q0 22 -9 46t-28.5 48.5t-58 40t-90.5 15.5h-52zM105 16v672h-95v16h305q107 0 169.5 -46t62.5 -110q0 -44 -15 -76t-34 -49t-51 -28.5t-51.5 -14.5t-49.5 -6v-2q60 -5 106.5 -22.5t80 -59t33.5 -101.5
q0 -48 -20 -86t-52 -59.5t-68.5 -32.5t-73.5 -11h-342v16h95zM207 366v-350h84q78 0 119.5 47t41.5 135q0 82 -51.5 125t-139.5 43h-54z" />
    <glyph glyph-name="C" unicode="C" horiz-adv-x="667" 
d="M597 690v-214h-16q0 88 -65 158t-155 70q-51 0 -89 -24.5t-59 -61t-34 -87t-16.5 -92t-3.5 -87.5t3.5 -87.5t16.5 -92t34 -87t59 -61t89 -24.5q92 0 156 76t64 173h16v-237h-16q0 18 -9 34t-25 16q-10 0 -36 -19.5t-65.5 -39t-84.5 -19.5q-128 0 -222 108t-94 260t94 260
t222 108q44 0 81.5 -18t62.5 -36.5t39 -18.5q37 0 37 43h16z" />
    <glyph glyph-name="D" unicode="D" horiz-adv-x="722" 
d="M105 16v672h-95v16h313q76 0 137 -24t98 -61t62 -85.5t34.5 -93.5t9.5 -88q0 -162 -92.5 -257t-247.5 -95h-314v16h95zM207 688v-672h86q33 0 62 5.5t66.5 26t64.5 55t45.5 99t18.5 150.5q0 71 -12 126t-42.5 105t-91 77.5t-148.5 27.5h-49z" />
    <glyph glyph-name="E" unicode="E" horiz-adv-x="667" 
d="M105 16v672h-88v16h533l12 -170h-16q0 154 -182 154h-157v-322h75q30 0 51.5 7.5t33.5 18.5t18.5 29t8.5 34t2 39h16v-266h-16q0 65 -21 93.5t-94 28.5h-74v-334h137q54 0 88 3.5t66 14t49 31.5t27 55t10 85h16v-205h-583v16h88z" />
    <glyph glyph-name="F" unicode="F" horiz-adv-x="611" 
d="M116 16v672h-91v16h535l14 -170h-17q-3 84 -48 119t-132 35h-159v-322h75q30 0 51.5 7.5t33.5 18.5t18.5 29t8.5 34t2 39h16v-266h-16q0 65 -21 93.5t-94 28.5h-74v-334h94v-16h-287v16h91z" />
    <glyph glyph-name="G" unicode="G" horiz-adv-x="722" 
d="M522 122v88h-92v16h279v-16h-79v-119q-2 -1 -13 -10.5t-17.5 -14t-20.5 -15t-25.5 -16.5t-29 -15t-34.5 -14.5t-37.5 -11t-44 -8t-47.5 -2.5q-139 0 -227.5 98t-88.5 270q0 152 94 260t222 108q48 0 88.5 -17t66 -34t37.5 -17q35 0 35 50h16v-214h-16q-3 83 -69.5 149.5
t-157.5 66.5q-51 0 -89 -24.5t-59 -61t-34 -87t-16.5 -92t-3.5 -87.5q0 -37 3 -71.5t10 -77t21.5 -76.5t36 -64t55 -46.5t76.5 -16.5q161 0 161 122z" />
    <glyph glyph-name="H" unicode="H" horiz-adv-x="778" 
d="M105 16v672h-88v16h284v-16h-94v-318h364v318h-94v16h284v-16h-88v-672h88v-16h-284v16h94v338h-364v-338h94v-16h-284v16h88z" />
    <glyph glyph-name="I" unicode="I" horiz-adv-x="334" 
d="M116 16v672h-91v16h284v-16h-91v-672h91v-16h-284v16h91z" />
    <glyph glyph-name="J" unicode="J" horiz-adv-x="389" 
d="M177 73v615h-100v16h302v-16h-100v-582q0 -84 -43.5 -133t-115.5 -49q-50 0 -78 24t-28 60q0 29 15.5 44t38.5 15q20 0 34 -12t14 -34q0 -19 -12.5 -28.5t-25 -14t-12.5 -11.5q0 -11 15 -19t39 -8q78 0 78 57q0 29 -10.5 49.5t-10.5 26.5z" />
    <glyph glyph-name="K" unicode="K" horiz-adv-x="722" 
d="M116 16v672h-91v16h294v-16h-101v-328l189 182q107 104 107 125t-41 21h-56v16h262v-16h-34q-58 0 -142 -79l-197 -189l289 -369q22 -27 32 -31q9 -4 22 -4h55v-16h-310v16h93l-256 331l-13 -10v-321h101v-16h-294v16h91z" />
    <glyph glyph-name="L" unicode="L" horiz-adv-x="667" 
d="M125 16v672h-100v16h302v-16h-100v-672h125q78 0 121.5 6.5t75.5 29.5t43.5 64.5t11.5 113.5h16v-230h-595v16h100z" />
    <glyph glyph-name="M" unicode="M" horiz-adv-x="833" 
d="M105 99v589h-88v16h193l210 -532l206 532h190v-16h-88v-672h88v-16h-284v16h94v634h-2l-244 -634h-9l-248 622h-2v-539q0 -51 11.5 -67t50.5 -16h40v-16h-206v16h26q39 0 50.5 16t11.5 67z" />
    <glyph glyph-name="N" unicode="N" horiz-adv-x="722" 
d="M603 -6l-479 662h-2v-583q0 -35 13 -46t49 -11h40v-16h-214v16h34q36 0 49 11t13 46v615h-96v16h210l378 -522h2v452q0 32 -10 43t-42 11h-47v16h211v-16h-44q-32 0 -42 -11t-10 -43v-640h-13z" />
    <glyph glyph-name="O" unicode="O" horiz-adv-x="722" 
d="M45 352q0 152 94 260t222 108t222 -108t94 -260t-94 -260t-222 -108t-222 108t-94 260zM159 352q0 -46 3.5 -87.5t16.5 -92t34 -87t59 -61t89 -24.5t89 24.5t59 61t34 87t16.5 92t3.5 87.5t-3.5 87.5t-16.5 92t-34 87t-59 61t-89 24.5t-89 -24.5t-59 -61t-34 -87
t-16.5 -92t-3.5 -87.5z" />
    <glyph glyph-name="P" unicode="P" horiz-adv-x="611" 
d="M116 16v672h-99v16h285q121 0 192.5 -46.5t71.5 -148.5q0 -67 -39.5 -112.5t-94.5 -64t-120 -18.5q-60 0 -94 17v-315h102v-16h-303v16h99zM218 688v-337q32 -21 77 -21q27 0 53.5 8t52.5 26t41.5 53t15.5 83q0 97 -44.5 142.5t-134.5 45.5h-61z" />
    <glyph glyph-name="Q" unicode="Q" horiz-adv-x="722" 
d="M412 -10v-113q0 -37 27 -55t103 -18q23 0 47 4v-16q-40 -4 -59 -4q-45 0 -79.5 3.5t-69 14t-53 32.5t-18.5 55v97q-111 21 -188 123.5t-77 238.5q0 152 94 260t222 108t222 -108t94 -260q0 -136 -76.5 -238.5t-188.5 -123.5zM159 352q0 -46 3.5 -87.5t16.5 -92t34 -87
t59 -61t89 -24.5t89 24.5t59 61t34 87t16.5 92t3.5 87.5t-3.5 87.5t-16.5 92t-34 87t-59 61t-89 24.5t-89 -24.5t-59 -61t-34 -87t-16.5 -92t-3.5 -87.5z" />
    <glyph glyph-name="R" unicode="R" horiz-adv-x="667" 
d="M125 16v672h-100v16h307q49 0 87 -7t75 -24.5t57.5 -54.5t20.5 -91q0 -43 -22 -75t-58.5 -49.5t-68 -26t-65.5 -12.5v-2q94 -8 137 -41t54 -126l14 -122q7 -63 52 -63q16 0 41 10l6 -13q-37 -13 -82 -13q-26 0 -45.5 4.5t-33.5 10.5t-24 20.5t-16 24.5t-11 34.5t-7 38.5
t-6 47l-7 60q-3 28 -9 46t-20 37t-41 28t-68 9h-65v-338h102v-16h-304v16h100zM227 688v-318h50q92 0 139.5 36.5t47.5 120.5q0 33 -7 59.5t-24 50.5t-52 37.5t-86 13.5h-68z" />
    <glyph glyph-name="S" unicode="S" horiz-adv-x="556" 
d="M54 -6v253h16q0 -120 62 -183.5t157 -63.5q72 0 118.5 42t46.5 109q0 75 -39 107t-130 46q-44 7 -72 13.5t-57 17t-45.5 25.5t-31 37t-20 53t-5.5 73q0 86 52 141.5t135 55.5q35 0 66 -9.5t48 -21t34 -21t28 -9.5q4 0 7.5 1t6 3t5 5t3.5 5t2.5 6.5l2 6t1.5 6t1 5.5h16
v-210h-16q-7 93 -58.5 155t-146.5 62q-65 0 -105 -40t-40 -108q0 -67 37 -92t163 -48q113 -20 159.5 -64t46.5 -139q0 -102 -56 -165.5t-161 -63.5q-58 0 -118.5 26t-71.5 26q-25 0 -25 -42h-16z" />
    <glyph glyph-name="T" unicode="T" horiz-adv-x="668" 
d="M283 16v672h-21q-136 0 -177 -35t-41 -156h-16v207h612v-207h-16q0 64 -8.5 99.5t-34.5 57t-65 28t-109 6.5h-22v-672h103v-16h-308v16h103z" />
    <glyph glyph-name="U" unicode="U" horiz-adv-x="722" 
d="M10 688v16h303v-16h-106v-523q0 -80 50.5 -122.5t120.5 -42.5q108 0 168 53.5t60 162.5v404q0 40 -13.5 54t-47.5 14h-56v16h232v-16h-45q-32 0 -43 -15t-11 -54v-415q0 -111 -68.5 -165.5t-176.5 -54.5q-135 0 -203.5 43t-68.5 155v506h-95z" />
    <glyph glyph-name="V" unicode="V" horiz-adv-x="722" 
d="M213 688l184 -547h2l142 399q35 98 35 110q0 19 -15 28.5t-63 9.5h-11v16h218v-16h-27q-39 0 -57.5 -17t-31.5 -52l-232 -643h-10l-249 712h-81v16h293v-16h-97z" />
    <glyph glyph-name="W" unicode="W" horiz-adv-x="944" 
d="M336 -24l-248 712h-71v16h232v-16h-53l190 -554h2l75 210l-119 344h-60v16h407v-16h-27q-32 0 -50 -11t-29 -44l-59 -163l111 -336h2l171 481q12 35 12 45q0 28 -44 28h-29v16h178v-16h-9q-37 0 -55.5 -15.5t-31.5 -51.5l-231 -645h-13l-113 342h-2l-123 -342h-13z
M448 688l66 -195h2l46 129q9 24 9 41q0 25 -40 25h-83z" />
    <glyph glyph-name="X" unicode="X" horiz-adv-x="722" 
d="M255 688l136 -246l119 188q14 22 14 32q0 14 -12 20t-46 6h-31v16h217v-16h-33q-30 0 -48.5 -13t-40.5 -48l-128 -202l229 -409h81v-16h-291v16h91l-174 313l-147 -230q-35 -55 -35 -65q0 -18 39 -18h50v-16h-235v16h25q42 0 66.5 9.5t45.5 41.5l181 280l-195 341h-87v16
h293v-16h-84z" />
    <glyph glyph-name="Y" unicode="Y" horiz-adv-x="667" 
d="M288 16v242l-187 430h-91v16h291v-16h-83l167 -387l124 280q26 58 26 80q0 27 -45 27h-38v16h205v-16h-42q-14 0 -24 -4t-17.5 -13t-11.5 -16.5t-10 -21.5l-162 -359v-258h106v-16h-314v16h106z" />
    <glyph glyph-name="Z" unicode="Z" horiz-adv-x="667" 
d="M38 0l426 688h-161q-50 0 -86 -5.5t-58.5 -19t-35.5 -26.5t-18.5 -37.5t-7 -41.5t-1.5 -48h-16v194h511l-428 -688h119q42 0 69.5 1t66.5 5t64.5 14t50 25t36.5 40t12 59v40h16v-200h-559z" />
    <glyph glyph-name="bracketleft" unicode="[" horiz-adv-x="389" 
d="M135 -239v968h191v-42h-149v-884h149v-42h-191z" />
    <glyph glyph-name="backslash" unicode="\" horiz-adv-x="389" 
d="M78 720l297 -736h-64l-297 736h64z" />
    <glyph glyph-name="bracketright" unicode="]" horiz-adv-x="389" 
d="M254 729v-968h-191v42h149v884h-149v42h191z" />
    <glyph glyph-name="asciicircum" unicode="^" horiz-adv-x="600" 
d="M91 333l183 365h52l183 -365h-62l-147 295l-147 -295h-62z" />
    <glyph glyph-name="underscore" unicode="_" horiz-adv-x="500" 
d="M0 -125v50h500v-50h-500z" />
    <glyph glyph-name="grave" unicode="`" 
d="M183 516l-145 90q-17 11 -23 15.5t-11.5 12t-5.5 17.5q0 14 10.5 24t21.5 10q18 0 43 -25l145 -144h-35z" />
    <glyph glyph-name="a" unicode="a" horiz-adv-x="500" 
d="M397 316v-262q0 -44 30 -44q15 0 26.5 10t25.5 30l11 -8q-31 -54 -88 -54q-34 0 -58.5 17.5t-29.5 44.5h-2q-47 -62 -145 -62q-59 0 -92 28t-33 79q0 40 24 69t64 43.5t80.5 21t83.5 6.5h19v123q0 58 -82 58q-31 0 -64 -11.5t-33 -35.5q0 -9 8 -14.5t16.5 -15t8.5 -28.5
q0 -18 -13 -30t-33 -12q-21 0 -32.5 15t-11.5 41q0 42 41.5 74.5t112.5 32.5q63 0 114.5 -31t51.5 -85zM313 219h-17q-29 0 -46 -1t-42.5 -6.5t-39.5 -16.5t-25 -32.5t-11 -52.5q0 -49 14.5 -73.5t58.5 -24.5q50 0 79 27.5t29 48.5v131z" />
    <glyph glyph-name="b" unicode="b" horiz-adv-x="556" 
d="M79 16v678h-69v16h69q62 0 84 25v-405h2q16 41 52 71.5t86 30.5q85 0 142 -71t57 -151q0 -91 -57.5 -156.5t-148.5 -65.5q-48 0 -83.5 27.5t-47.5 57.5h-2v-73h-153v16h69zM163 261v-116q0 -66 41.5 -103.5t91.5 -37.5q70 0 90 43t20 163q0 111 -20.5 158.5t-82.5 47.5
q-59 0 -99.5 -48.5t-40.5 -106.5z" />
    <glyph glyph-name="c" unicode="c" horiz-adv-x="444" 
d="M402 141h16q-2 -60 -49.5 -106.5t-118.5 -46.5q-95 0 -153.5 59t-58.5 146q0 98 64.5 168.5t153.5 70.5q57 0 100.5 -24.5t43.5 -68.5q0 -22 -14.5 -36t-33.5 -14q-22 0 -35 13t-13 30q0 23 12.5 36t12.5 17q0 15 -24.5 23t-50.5 8q-68 0 -94 -40t-26 -118v-87
q0 -27 1 -43.5t4 -38t11 -35t20 -26t32.5 -18.5t47.5 -6q69 0 107.5 41.5t44.5 95.5z" />
    <glyph glyph-name="d" unicode="d" horiz-adv-x="556" 
d="M393 144v117q0 58 -40.5 106.5t-99.5 48.5q-62 0 -82.5 -47.5t-20.5 -158.5q0 -120 20 -163t90 -43q53 0 93.5 40t39.5 100zM393 0v73h-2q-14 -31 -49 -58t-82 -27q-91 0 -148.5 65.5t-57.5 156.5q0 80 57 151t142 71q50 0 86 -30.5t52 -71.5h2v364h-80v16h80q62 0 84 25
v-719h69v-16h-153z" />
    <glyph glyph-name="e" unicode="e" horiz-adv-x="444" 
d="M134 249v-94q0 -31 3 -54t12.5 -47t31.5 -37t56 -13q62 0 105.5 38t54.5 100h16q-12 -70 -60 -112t-116 -42q-88 0 -143.5 61.5t-55.5 160.5q0 78 55 150t132 72q41 0 77 -21t57 -50.5t33 -57.5t12 -45q0 -9 -9 -9h-261zM308 272v21q0 123 -83 123q-91 0 -91 -123v-28
h167q7 0 7 7z" />
    <glyph glyph-name="f" unicode="f" horiz-adv-x="333" 
d="M112 16v378h-90v16h90v69q0 101 43 178.5t114 77.5q44 0 67 -26.5t23 -64.5q0 -19 -13 -33t-35 -14q-21 0 -31.5 12t-10.5 28q0 20 13.5 29t27 13.5t13.5 12.5q0 11 -15 19t-35 8q-39 0 -58 -29.5t-19 -108.5v-171h114v-16h-114v-378h91v-16h-265v16h90z" />
    <glyph glyph-name="g" unicode="g" horiz-adv-x="500" 
d="M109 46h234q111 0 111 -115q0 -98 -67.5 -154.5t-163.5 -56.5q-79 0 -136 31.5t-57 97.5q0 38 30.5 69t69.5 48v2q-40 0 -60.5 25t-20.5 68q0 51 24.5 74.5t73.5 24.5v2q-75 48 -75 114t49 111t117 45q75 0 117 -43q39 43 77 43q22 0 36.5 -12t14.5 -33q0 -17 -11.5 -26
t-28.5 -9q-14 0 -23 9.5t-9 21.5q0 22 11 33q-33 -2 -57 -37q39 -43 39 -100q0 -60 -52.5 -103.5t-113.5 -43.5q-35 0 -75 18q-98 -2 -98 -63q0 -18 12.5 -29.5t31.5 -11.5zM336 -32h-167q-91 -20 -91 -115q0 -59 43 -88t107 -29q80 0 141 46.5t61 118.5q0 67 -94 67z
M156 282q0 -26 0.5 -39.5t5 -34.5t12.5 -32t24 -19.5t40 -8.5t40 8t24.5 18t12.5 31t4.5 35t0.5 42q0 31 -0.5 45.5t-4.5 35.5t-12.5 30t-24.5 16t-40 7q-23 0 -39.5 -9.5t-24.5 -21.5t-12.5 -33.5t-5 -34.5t-0.5 -35z" />
    <glyph glyph-name="h" unicode="h" horiz-adv-x="556" 
d="M92 16v678h-79v16h79q62 0 84 25v-405h2q23 42 61 72t88 30q137 0 137 -113v-303h79v-16h-242v16h79v327q0 73 -59 73q-29 0 -54.5 -12.5t-44 -35.5t-27 -36t-19.5 -34v-282h76v-16h-239v16h79z" />
    <glyph glyph-name="i" unicode="i" 
d="M97 16v378h-80v16h80q62 0 84 22v-416h80v-16h-244v16h80zM88 612q0 21 15 36t36 15t36 -15t15 -36t-15 -36t-36 -15t-36 15t-15 36z" />
    <glyph glyph-name="j" unicode="j" 
d="M97 -102v496h-94v16h94q62 0 84 22v-549q0 -56 -43 -109.5t-90 -53.5q-22 0 -33.5 12t-11.5 27q0 16 10.5 27.5t28.5 11.5q19 0 29 -10.5t10 -25.5q0 -10 -4 -18q16 0 25.5 12.5t9.5 29.5q0 16 -7.5 48t-7.5 64zM88 612q0 21 15 36t36 15t36 -15t15 -36t-15 -36t-36 -15
t-36 15t-15 36z" />
    <glyph glyph-name="k" unicode="k" horiz-adv-x="556" 
d="M92 16v678h-79v16h79q62 0 84 25v-557l160 154q35 33 35 46q0 16 -45 16h-34v16h211v-16h-35q-25 0 -41.5 -8t-42.5 -32l-111 -105l157 -195q14 -17 19 -22.5t13 -10.5t17 -5h51v-16h-251v16h72l-140 173l-35 -33v-140h70v-16h-233v16h79z" />
    <glyph glyph-name="l" unicode="l" 
d="M97 16v678h-80v16h80q62 0 84 25v-719h80v-16h-244v16h80z" />
    <glyph glyph-name="m" unicode="m" horiz-adv-x="834" 
d="M13 0v16h79v378h-79v16h79q40 0 55.5 3.5t28.5 18.5v-98h2q54 98 144 98q126 0 137 -107h2q16 46 54 77t91 30q71 -1 103.5 -35t32.5 -87v-294h79v-16h-242v16h79v312q0 88 -70 88q-42 0 -77.5 -39t-51.5 -94v-267h76v-16h-239v16h79v331q0 69 -65 69q-86 0 -134 -118
v-282h76v-16h-239z" />
    <glyph glyph-name="n" unicode="n" horiz-adv-x="556" 
d="M92 16v378h-79v16h79q40 0 55.5 3.5t28.5 18.5v-102h2q23 42 61 72t88 30q137 0 137 -113v-303h79v-16h-242v16h79v327q0 73 -59 73q-29 0 -54.5 -12.5t-44 -35.5t-27 -36t-19.5 -34v-282h76v-16h-239v16h79z" />
    <glyph glyph-name="o" unicode="o" horiz-adv-x="500" 
d="M38 210q0 90 59 156t153 66t153 -66t59 -156t-59 -156t-153 -66t-153 66t-59 156zM366 171v78q0 27 -1 43.5t-4 38t-11 35t-20 26t-32.5 18.5t-47.5 6t-47.5 -6t-32.5 -18.5t-20 -26t-11 -35t-4 -38t-1 -43.5v-78q0 -27 1 -43.5t4 -38t11 -35t20 -26t32.5 -18.5t47.5 -6
t47.5 6t32.5 18.5t20 26t11 35t4 38t1 43.5z" />
    <glyph glyph-name="p" unicode="p" horiz-adv-x="556" 
d="M79 -254v648h-69v16h69q62 0 84 22v-102h2q16 41 52 71.5t86 30.5q85 0 142 -71t57 -151q0 -91 -57.5 -156.5t-148.5 -65.5q-47 0 -82 27t-49 58h-2v-327h77v-16h-230v16h69zM163 261v-117q0 -58 39 -99t94 -41q70 0 90 43t20 163q0 111 -20.5 158.5t-82.5 47.5
q-59 0 -99.5 -48.5t-40.5 -106.5z" />
    <glyph glyph-name="q" unicode="q" horiz-adv-x="556" 
d="M149 210q0 -120 20 -163t90 -43q53 0 93 40t40 100v117q0 58 -40.5 106.5t-99.5 48.5q-62 0 -82.5 -47.5t-20.5 -158.5zM393 -254v327h-2q-14 -31 -49.5 -58t-81.5 -27q-91 0 -148.5 65.5t-57.5 156.5q0 80 57 151t142 71q50 0 86 -30.5t52 -71.5h2v102q13 -13 38 -18
q19 -4 46 -4h69v-16h-69v-648h69v-16h-230v16h77z" />
    <glyph glyph-name="r" unicode="r" horiz-adv-x="389" 
d="M97 16v378h-84v16h84q62 0 84 22v-118h2q12 45 43 81.5t86 36.5q28 0 47 -16.5t19 -42.5q0 -20 -12 -33.5t-34 -13.5q-44 0 -44 44q0 31 22 43q-4 3 -14 3q-37 0 -76 -53.5t-39 -141.5v-205h91v-16h-259v16h84z" />
    <glyph glyph-name="s" unicode="s" horiz-adv-x="389" 
d="M51 -6l-2 151h13q22 -141 139 -141q42 0 69.5 25.5t27.5 67.5q0 26 -8 43t-25.5 25.5t-31 11t-38.5 5.5q-7 1 -10 1q-31 3 -48.5 7.5t-39 16t-31 35.5t-9.5 61q0 56 34 92.5t91 36.5q24 0 46.5 -9t37 -17.5t17.5 -8.5q7 0 7 21v8h14l4 -119h-13q-13 109 -116 109
q-40 0 -66 -21t-26 -59q0 -37 26.5 -54t78.5 -20l34 -2q114 -7 114 -118q0 -68 -40 -111t-99 -43q-35 0 -61 11t-40.5 21.5t-21.5 10.5q-4 0 -6 -1.5t-3 -5.5t-1.5 -7.5t-1 -10.5t-0.5 -12h-15z" />
    <glyph glyph-name="t" unicode="t" horiz-adv-x="333" 
d="M97 77v317h-87v16q76 -1 111 31.5t48 108.5h12v-140h138v-16h-138v-336q0 -30 12 -42t37 -12q23 0 41 13t25.5 25.5t11.5 24.5l15 -3q-8 -27 -34.5 -51.5t-75.5 -24.5q-116 0 -116 89z" />
    <glyph glyph-name="u" unicode="u" horiz-adv-x="556" 
d="M97 99v295h-80v16h80q62 0 84 22v-358q0 -32 16.5 -51t45.5 -19q51 0 91.5 48t40.5 105v237h-79v16h79q62 0 84 22v-416h80v-16h-164v91h-2q-5 -12 -14 -26.5t-25.5 -33t-43 -31t-57.5 -12.5q-70 0 -103 31.5t-33 79.5z" />
    <glyph glyph-name="v" unicode="v" horiz-adv-x="500" 
d="M245 -24l-182 418h-58v16h229v-16h-74l126 -304l98 223q17 39 17 55q0 26 -45 26h-35v16h174v-16q-36 0 -50 -8.5t-29 -42.5l-163 -367h-8z" />
    <glyph glyph-name="w" unicode="w" horiz-adv-x="722" 
d="M243 -24l-184 418h-54v16h449v-16h-80l132 -307l95 219q16 36 16 58q0 30 -47 30h-27v16h174v-16q-30 0 -48.5 -10.5t-26 -24t-21.5 -44.5l-147 -339h-7l-111 249l-106 -249h-7zM157 394l127 -300l64 150l-66 150h-125z" />
    <glyph glyph-name="x" unicode="x" horiz-adv-x="500" 
d="M198 394l77 -127l49 65q25 33 25 44q0 18 -44 18h-21v16h185v-16h-30q-28 0 -45 -10t-38 -37l-73 -93l146 -238h66v-16h-245v16h78l-100 163l-73 -96q-24 -31 -24 -51q0 -16 24 -16h45v-16h-195v16h25q35 0 55.5 14.5t53.5 57.5l81 105l-122 201h-72v16h232v-16h-60z" />
    <glyph glyph-name="y" unicode="y" horiz-adv-x="500" 
d="M156 394l132 -313l94 239q13 34 13 48q0 15 -13.5 20.5t-44.5 5.5h-41v16h195v-16q-45 0 -58.5 -11.5t-32.5 -57.5l-89 -224q-51 -128 -57 -151q-33 -131 -55.5 -175.5t-71.5 -44.5q-25 0 -40 14t-15 38q0 21 13 34.5t35 13.5q18 0 30 -11.5t12 -26.5q0 -4 -0.5 -9
t-0.5 -7q0 -10 8 -10q10 0 20 17t19.5 46t15.5 53t12.5 54t7.5 32l-185 426h-54v16h223v-16h-72z" />
    <glyph glyph-name="z" unicode="z" horiz-adv-x="444" 
d="M17 0l287 394h-95q-81 0 -109.5 -34.5t-28.5 -103.5h-16v154h363l-285 -394h98q81 0 112.5 28t31.5 105h16v-149h-374z" />
    <glyph glyph-name="braceleft" unicode="{" horiz-adv-x="389" 
d="M298 -205v-34q-79 0 -109 27.5t-30 112.5v218q0 61 -15.5 87t-76.5 39q61 13 76.5 39t15.5 87v218q0 85 30 112.5t109 27.5v-34q-64 0 -80.5 -26.5t-16.5 -91.5v-190q0 -68 -12.5 -98.5t-56.5 -42.5v-2q44 -12 56.5 -42.5t12.5 -98.5v-190q0 -36 1.5 -52t10.5 -34.5
t29 -25t56 -6.5z" />
    <glyph glyph-name="bar" unicode="|" horiz-adv-x="222" 
d="M81 -250v1000h60v-1000h-60z" />
    <glyph glyph-name="braceright" unicode="}" horiz-adv-x="389" 
d="M91 -239v34q64 0 80.5 26.5t16.5 91.5v190q0 68 12.5 98.5t56.5 42.5v2q-44 12 -56.5 42.5t-12.5 98.5v190q0 36 -1.5 52t-10.5 34.5t-29 25t-56 6.5v34q79 0 109 -27.5t30 -112.5v-218q0 -61 15.5 -87t76.5 -39q-61 -13 -76.5 -39t-15.5 -87v-218q0 -85 -30 -112.5
t-109 -27.5z" />
    <glyph glyph-name="asciitilde" unicode="~" horiz-adv-x="600" 
d="M491 319l40 -42q-19 -26 -33.5 -42t-38.5 -30t-51 -14q-56 0 -119 37q-46 27 -93 27q-54 0 -87 -68l-40 42q19 26 33.5 42t38.5 30t51 14q56 0 119 -37q46 -27 93 -27q54 0 87 68z" />
    <glyph glyph-name="uni00A0" unicode="&#xa0;" 
 />
    <glyph glyph-name="exclamdown" unicode="&#xa1;" horiz-adv-x="388" 
d="M202 292v-58q0 -95 12 -214t40 -190q-28 -37 -55 -102q-3 -8 -5 -8t-5 8q-27 65 -55 102q28 71 40 190t12 214v58h16zM194 350q-20 0 -35.5 15t-15.5 36t15.5 36t35.5 15q21 0 36 -15t15 -36t-15 -36t-36 -15z" />
    <glyph glyph-name="cent" unicode="&#xa2;" horiz-adv-x="556" 
d="M282 6v408q-56 -6 -77 -45.5t-21 -110.5v-87q0 -30 1 -48.5t6.5 -42t15.5 -37t29 -24.5t46 -13zM282 -127v117q-87 5 -140.5 63t-53.5 140q0 91 56.5 159t137.5 78v73h16v-71h8q57 0 100.5 -24.5t43.5 -68.5q0 -22 -14.5 -36t-33.5 -14q-22 0 -35 13t-13 30q0 23 12.5 36
t12.5 17q0 15 -24.5 23t-50.5 8h-6v-412q71 0 109.5 41.5t44.5 95.5h16q-2 -60 -50 -106.5t-120 -46.5v-115h-16z" />
    <glyph glyph-name="sterling" unicode="&#xa3;" horiz-adv-x="556" 
d="M30 333v16h114q-80 105 -80 174q0 92 66 139.5t162 47.5q89 0 150.5 -41t61.5 -124q0 -33 -15.5 -53.5t-43.5 -20.5q-20 0 -34.5 13t-14.5 35q0 23 13.5 35.5t31.5 12.5q9 0 16.5 -3t11.5 -3q11 0 11 20q0 51 -51.5 82t-113.5 31q-77 0 -116 -46t-39 -125q0 -20 4.5 -45
t8.5 -39t15 -48t13 -42h225v-16h-220q18 -68 18 -117q0 -41 -10 -68q29 -2 123.5 -51t114.5 -49q6 0 11 1.5t11 5.5t9.5 6.5t10 9l8.5 8.5t8.5 10t7.5 9l14 -7q-4 -5 -20 -27t-23.5 -30t-22 -21.5t-30 -19t-33.5 -5.5q-31 0 -67.5 15.5t-82.5 42.5t-63 35q-17 -37 -44 -62
t-61 -25q-26 0 -43.5 15.5t-17.5 41.5q0 46 45 74t93 28q28 0 39 -2q7 22 7 42q0 11 -1.5 21.5t-5 22t-6 19t-9 20.5t-9.5 18t-11.5 20t-10.5 19h-125zM40 51q0 -18 12 -29.5t35 -11.5q53 0 90 77q-31 18 -68 18q-69 0 -69 -54z" />
    <glyph glyph-name="currency" unicode="&#xa4;" horiz-adv-x="556" 
d="M17 127l67 67q-54 66 -54 155t54 155l-67 67l39 40l68 -68q62 54 154 54t154 -54l68 68l39 -40l-67 -67q54 -66 54 -155t-54 -155l67 -67l-39 -40l-68 68q-61 -54 -154 -54t-154 54l-68 -68zM90 349q0 -79 55 -133.5t133 -54.5q79 0 133.5 54.5t54.5 133.5t-54.5 133.5
t-133.5 54.5q-79 -1 -133.5 -55t-54.5 -133z" />
    <glyph glyph-name="yen" unicode="&#xa5;" horiz-adv-x="556" 
d="M329 186v-170h106v-16h-302v16h106v170h-159v16h159v52l-15 43h-144v16h138l-134 369h-88v16h276v-16h-83l129 -369h12l90 261q22 64 22 81q0 27 -45 27h-38v16h201v-16h-38q-26 0 -39.5 -14t-23.5 -41l-114 -314h143v-16h-149l-10 -27v-68h159v-16h-159z" />
    <glyph glyph-name="brokenbar" unicode="&#xa6;" horiz-adv-x="222" 
d="M81 -175v350h60v-350h-60zM81 325v350h60v-350h-60z" />
    <glyph glyph-name="section" unicode="&#xa7;" horiz-adv-x="556" 
d="M266 472l111 -57q60 -32 79 -50q40 -40 40 -112q0 -38 -31.5 -88.5t-70.5 -83.5q41 -24 56 -56t15 -82q0 -86 -57.5 -135.5t-147.5 -49.5q-65 0 -106.5 32t-41.5 85q0 30 15 51t43 21q22 0 34.5 -14.5t12.5 -32.5q0 -23 -13 -36t-32 -13q-18 0 -32 14q-4 -5 -4 -18
q0 -31 41 -52t83 -21q64 0 113.5 31.5t49.5 94.5q0 40 -20.5 61t-83.5 54l-120 63q-74 39 -106.5 70.5t-32.5 75.5q0 111 106 195q-50 34 -50 102q0 82 49.5 140.5t135.5 58.5q58 0 100 -30.5t42 -81.5q0 -31 -15 -49t-43 -18q-19 0 -33 13t-14 32q0 21 12.5 33t33.5 12
q19 0 34 -13q1 3 1 12q0 27 -31 50.5t-87 23.5q-55 0 -93 -31.5t-38 -84.5q0 -32 12.5 -53t28 -31.5t55.5 -31.5zM454 211q0 21 -8.5 38t-26.5 31t-31 21.5t-36 19.5l-172 87q-30 -18 -57 -54t-27 -71q0 -25 14.5 -41.5t51.5 -35.5l219 -116q73 63 73 121z" />
    <glyph glyph-name="dieresis" unicode="&#xa8;" 
d="M233 626q18 0 31.5 -13.5t13.5 -31.5t-13.5 -31.5t-31.5 -13.5q-19 0 -32 13.5t-13 31.5t13 31.5t32 13.5zM45 626q18 0 31.5 -13.5t13.5 -31.5t-13.5 -31.5t-31.5 -13.5q-19 0 -32 13.5t-13 31.5t13 31.5t32 13.5z" />
    <glyph glyph-name="copyright" unicode="&#xa9;" horiz-adv-x="800" 
d="M400 720q153 0 260.5 -108t107.5 -260t-107.5 -260t-260.5 -108q-152 0 -260 108t-108 260t108 260t260 108zM400 672q-129 0 -221.5 -95t-92.5 -225t92.5 -225t221.5 -95t221.5 95t92.5 225t-92.5 225t-221.5 95zM583 261l-17 -74q-3 -12 -29 -20q-54 -18 -115 -18
q-100 0 -164 52t-64 159q0 35 14.5 70t42 65.5t74 50t104.5 19.5q53 0 112 -19q25 -8 25 -22v-74h-16q0 39 -31.5 69t-93.5 30q-77 0 -117.5 -51t-41.5 -133q-1 -89 41.5 -144.5t125.5 -55.5q94 0 135 96h15z" />
    <glyph glyph-name="ordfeminine" unicode="&#xaa;" horiz-adv-x="325" 
d="M263 632v-146q0 -26 15 -26q17 0 33 21l8 -5q-21 -32 -60 -32q-53 0 -61 41h-1q-21 -41 -88 -41q-89 0 -89 64q0 84 177 84v74q0 34 -48 34q-20 0 -41 -7t-21 -21q0 -6 14 -13t14 -21q0 -13 -10 -22t-26 -9t-26 9.5t-10 24.5q0 32 30 50.5t77 18.5t80 -20t33 -58z
M197 506v76q-61 0 -83 -11t-22 -54q0 -29 8.5 -43t32.5 -14q48 0 64 46z" />
    <glyph glyph-name="guillemotleft" unicode="&#xab;" horiz-adv-x="500" 
d="M228 241l145 164l29 -25l-122 -139l122 -139l-29 -25zM98 241l145 164l29 -25l-122 -139l122 -139l-29 -25z" />
    <glyph glyph-name="logicalnot" unicode="&#xac;" horiz-adv-x="600" 
d="M493 108v213h-446v60h506v-273h-60z" />
    <glyph glyph-name="uni00AD" unicode="&#xad;" horiz-adv-x="389" 
d="M65 211l16 60q126 -4 243 0l-16 -60q-121 5 -243 0z" />
    <glyph glyph-name="registered" unicode="&#xae;" horiz-adv-x="800" 
d="M400 720q153 0 260.5 -108t107.5 -260t-107.5 -260t-260.5 -108q-152 0 -260 108t-108 260t108 260t260 108zM400 672q-129 0 -221.5 -95t-92.5 -225t92.5 -225t221.5 -95t221.5 95t92.5 225t-92.5 225t-221.5 95zM225 160v16h23q19 0 24.5 9t5.5 43v257q0 34 -5.5 43
t-24.5 9h-23v16h189q54 0 91 -25t37 -76q0 -42 -21.5 -71t-60.5 -39l56 -83q3 -4 10 -12.5t10.5 -13.5t9.5 -12.5t10.5 -12t10 -10.5t9.5 -9t9 -6.5t9.5 -5t8.5 -1.5v-16h-65q-11 0 -21 7.5t-22.5 24t-24 35t-32.5 50t-41 58.5h-53v-107q0 -34 5.5 -43t24.5 -9h23v-16h-172z
M344 537v-186h51q40 0 60.5 27.5t20.5 74.5q0 43 -24 63.5t-60 20.5h-48z" />
    <glyph glyph-name="macron" unicode="&#xaf;" 
d="M6 557v48h266v-48h-266z" />
    <glyph glyph-name="degree" unicode="&#xb0;" horiz-adv-x="400" 
d="M93 567q0 -42 31.5 -74.5t75.5 -32.5t75.5 32.5t31.5 74.5t-31.5 74.5t-75.5 32.5t-75.5 -32.5t-31.5 -74.5zM57 567q0 61 41.5 102t101.5 41t101.5 -41t41.5 -102t-41.5 -102t-101.5 -41t-101.5 41t-41.5 102z" />
    <glyph glyph-name="plusminus" unicode="&#xb1;" horiz-adv-x="600" 
d="M270 332v174h60v-174h223v-60h-223v-174h-60v174h-223v60h223zM47 0v60h506v-60h-506z" />
    <glyph glyph-name="two.superior" unicode="&#xb2;" horiz-adv-x="361" 
d="M325 400l-16 -116h-289q12 30 39.5 59.5t58 54t59.5 51.5t48 64t19 81q0 46 -24 76t-67 30q-36 0 -66.5 -21.5t-30.5 -55.5q0 -17 19 -17q33 0 33 -27q0 -33 -37 -33q-19 0 -29 17.5t-10 36.5q0 54 39.5 82t98.5 28q63 0 104.5 -32.5t41.5 -89.5q0 -37 -23.5 -68.5
t-55 -52.5t-79.5 -57t-81 -72h226l10 62h12z" />
    <glyph glyph-name="three.superior" unicode="&#xb3;" horiz-adv-x="361" 
d="M74 515v10h49q63 0 89.5 16.5t26.5 77.5q0 81 -78 81q-34 0 -59.5 -15.5t-25.5 -27.5q0 -4 2 -4q1 0 4 0.5t6 0.5q34 0 34 -29q0 -14 -11 -22.5t-27 -8.5q-14 0 -23 11t-9 25q0 40 35 60t82 20q57 0 96.5 -23.5t39.5 -67.5q0 -77 -113 -98v-2q29 -2 56 -11t52 -36.5
t25 -68.5q0 -57 -55 -91t-120 -34q-52 0 -90 20.5t-38 65.5q0 16 11.5 29.5t29.5 13.5q16 0 26.5 -9.5t10.5 -24.5t-10 -23.5t-23 -8.5q-3 0 -8 1t-7 1q-6 0 -6 -6q0 -20 32.5 -34.5t62.5 -14.5q60 0 86 29t26 87q0 19 -4 36.5t-14.5 35.5t-32.5 28.5t-53 10.5h-75z" />
    <glyph glyph-name="acute" unicode="&#xb4;" 
d="M60 516l145 144q25 25 43 25q11 0 21.5 -10t10.5 -24q0 -10 -5.5 -17.5t-11.5 -12t-23 -15.5l-145 -90h-35z" />
    <glyph glyph-name="mu" unicode="&#xb5;" horiz-adv-x="556" 
d="M459 432v-416h80v-16h-164v91h-2q-5 -12 -14 -26.5t-25.5 -33t-43 -31t-57.5 -12.5q-37 0 -68 23q0 -37 7 -117t7 -115q0 -49 -45 -49t-45 49q0 23 4 86t4 119v410h-80v16h80q62 0 84 22v-358q0 -32 16.5 -51t45.5 -19q51 0 91.5 48t40.5 105v237h-79v16h79q62 0 84 22z
" />
    <glyph glyph-name="paragraph" unicode="&#xb6;" horiz-adv-x="600" 
d="M545 704v-16h-81v-898h81v-16h-141v914h-78v-914h-142v16h82v503q-198 0 -198 213q0 103 46.5 150.5t162.5 47.5h268zM266 309v379q-63 0 -94.5 -44.5t-31.5 -139.5q0 -90 37.5 -142.5t88.5 -52.5z" />
    <glyph glyph-name="periodcentered" unicode="&#xb7;" 
d="M139 260q-21 0 -36 15t-15 36t15 36t36 15q20 0 35.5 -15t15.5 -36t-15.5 -36t-35.5 -15z" />
    <glyph glyph-name="cedilla" unicode="&#xb8;" 
d="M145 0h24l-51 -84l2 -2q22 10 61 10q29 0 54 -17t25 -45q0 -41 -35.5 -59.5t-80.5 -18.5q-43 0 -105 22l8 13q31 -11 69 -11q66 -3 66 52q0 16 -10 28t-28 12q-20 0 -41 -6l-17 7z" />
    <glyph glyph-name="one.superior" unicode="&#xb9;" horiz-adv-x="361" 
d="M161 294v330q0 14 -7 14q-15 0 -103 -44v10q97 52 146 94h36v-404h60v-10h-193v10h61z" />
    <glyph glyph-name="ordmasculine" unicode="&#xba;" horiz-adv-x="325" 
d="M20 577q0 54 39.5 93.5t103.5 39.5t103 -39.5t39 -93.5t-39 -93.5t-103 -39.5t-103.5 39.5t-39.5 93.5zM92 577q0 -29 0.5 -42.5t4 -32.5t11 -27t21 -14.5t34.5 -6.5t34.5 6.5t20.5 14.5t10.5 27t4 32.5t0.5 42.5t-0.5 42.5t-4 32.5t-10.5 27t-20.5 14.5t-34.5 6.5
t-34.5 -6.5t-21 -14.5t-11 -27t-4 -32.5t-0.5 -42.5z" />
    <glyph glyph-name="guillemotright" unicode="&#xbb;" horiz-adv-x="500" 
d="M272 241l-145 -164l-29 25l122 139l-122 139l29 25zM402 241l-145 -164l-29 25l122 139l-122 139l29 25z" />
    <glyph glyph-name="onequarter" unicode="&#xbc;" horiz-adv-x="834" 
d="M174 -22l463 742h45l-463 -742h-45zM137 294v330q0 14 -7 14q-15 0 -103 -44v10q97 52 146 94h36v-404h60v-10h-193v10h61zM676 10v130h-198l243 292h14l-202 -244h143v144h66v-144h65v-48h-65v-130h59v-10h-186v10h61z" />
    <glyph glyph-name="onehalf" unicode="&#xbd;" horiz-adv-x="834" 
d="M154 -22l463 742h45l-463 -742h-45zM137 294v330q0 14 -7 14q-15 0 -103 -44v10q97 52 146 94h36v-404h60v-10h-193v10h61zM807 116l-16 -116h-289q12 30 39.5 59.5t58 54t59.5 51.5t48 64t19 81q0 46 -24 76t-67 30q-36 0 -66.5 -21.5t-30.5 -55.5q0 -17 19 -17
q33 0 33 -27q0 -33 -37 -33q-19 0 -29 17.5t-10 36.5q0 54 39.5 82t98.5 28q63 0 104.5 -32.5t41.5 -89.5q0 -47 -34 -81.5t-99.5 -80t-104.5 -88.5h226l9 62h12z" />
    <glyph glyph-name="threequarters" unicode="&#xbe;" horiz-adv-x="834" 
d="M194 -22l463 742h45l-463 -742h-45zM79 515v10h49q63 0 89.5 16.5t26.5 77.5q0 81 -78 81q-34 0 -59.5 -15.5t-25.5 -27.5q0 -4 2 -4q1 0 4 0.5t6 0.5q34 0 34 -29q0 -14 -11 -22.5t-27 -8.5q-14 0 -23 11t-9 25q0 40 35 60t82 20q57 0 96.5 -23.5t39.5 -67.5
q0 -77 -113 -98v-2q29 -2 56 -11t52 -36.5t25 -68.5q0 -57 -55 -91t-120 -34q-52 0 -90 20.5t-38 65.5q0 16 11.5 29.5t29.5 13.5q16 0 26.5 -9.5t10.5 -24.5t-10 -23.5t-23 -8.5q-3 0 -8 1t-7 1q-6 0 -6 -6q0 -20 32.5 -34.5t62.5 -14.5q60 0 86 29t26 87q0 19 -4 36.5
t-14.5 35.5t-32.5 28.5t-53 10.5h-75zM676 10v130h-198l243 292h14l-202 -244h143v144h66v-144h65v-48h-65v-130h59v-10h-186v10h61z" />
    <glyph glyph-name="questiondown" unicode="&#xbf;" horiz-adv-x="500" 
d="M304 291l13 3q17 -68 17 -123q0 -49 -20.5 -88t-49.5 -65t-58.5 -50t-50 -55t-20.5 -68q0 -51 38 -80t90 -29q33 0 64.5 17t31.5 43q0 9 -10.5 13t-22.5 5.5t-22.5 12.5t-10.5 32q0 22 13.5 33.5t35.5 11.5q24 0 38.5 -21t14.5 -45q0 -50 -39 -84t-93 -34
q-75 0 -116.5 47t-41.5 123q0 60 17.5 95t50.5 65q83 77 110 110.5t27 72.5q0 30 -6 58zM306 350q-20 0 -35.5 15t-15.5 36t15.5 36t35.5 15q21 0 36 -15t15 -36t-15 -36t-36 -15z" />
    <glyph glyph-name="Agrave" unicode="&#xc0;" horiz-adv-x="667" 
d="M462 16l-72 212h-214l-41 -126q-15 -43 -15 -61q0 -25 44 -25h52v-16h-206v16h32q26 0 38 10t25 49l215 645h11l243 -704h83v-16h-293v16h98zM385 244l-103 303h-2l-98 -303h203zM378 772l-145 90q-17 11 -23 15.5t-11.5 12t-5.5 17.5q0 14 10.5 24t21.5 10q18 0 43 -25
l145 -144h-35z" />
    <glyph glyph-name="Aacute" unicode="&#xc1;" horiz-adv-x="667" 
d="M462 16l-72 212h-214l-41 -126q-15 -43 -15 -61q0 -25 44 -25h52v-16h-206v16h32q26 0 38 10t25 49l215 645h11l243 -704h83v-16h-293v16h98zM385 244l-103 303h-2l-98 -303h203zM255 772l145 144q25 25 43 25q11 0 21.5 -10t10.5 -24q0 -10 -5.5 -17.5t-11.5 -12
t-23 -15.5l-145 -90h-35z" />
    <glyph glyph-name="Acircumflex" unicode="&#xc2;" horiz-adv-x="667" 
d="M462 16l-72 212h-214l-41 -126q-15 -43 -15 -61q0 -25 44 -25h52v-16h-206v16h32q26 0 38 10t25 49l215 645h11l243 -704h83v-16h-293v16h98zM385 244l-103 303h-2l-98 -303h203zM184 772l122 169h56l122 -169h-33l-117 106l-117 -106h-33z" />
    <glyph glyph-name="Atilde" unicode="&#xc3;" horiz-adv-x="667" 
d="M462 16l-72 212h-214l-41 -126q-15 -43 -15 -61q0 -25 44 -25h52v-16h-206v16h32q26 0 38 10t25 49l215 645h11l243 -704h83v-16h-293v16h98zM385 244l-103 303h-2l-98 -303h203zM471 898h26q-13 -44 -39.5 -73t-68.5 -29q-32 0 -74 24q-43 24 -63 24q-40 0 -55 -48h-26
q13 44 39.5 73t68.5 29q32 0 74 -24q43 -24 63 -24q40 0 55 48z" />
    <glyph glyph-name="Adieresis" unicode="&#xc4;" horiz-adv-x="667" 
d="M462 16l-72 212h-214l-41 -126q-15 -43 -15 -61q0 -25 44 -25h52v-16h-206v16h32q26 0 38 10t25 49l215 645h11l243 -704h83v-16h-293v16h98zM385 244l-103 303h-2l-98 -303h203zM428 882q18 0 31.5 -13.5t13.5 -31.5t-13.5 -31.5t-31.5 -13.5q-19 0 -32 13.5t-13 31.5
t13 31.5t32 13.5zM240 882q18 0 31.5 -13.5t13.5 -31.5t-13.5 -31.5t-31.5 -13.5q-19 0 -32 13.5t-13 31.5t13 31.5t32 13.5z" />
    <glyph glyph-name="Aring" unicode="&#xc5;" horiz-adv-x="667" 
d="M462 16l-72 212h-214l-41 -126q-15 -43 -15 -61q0 -25 44 -25h52v-16h-206v16h32q26 0 38 10t25 49l215 645h11l243 -704h83v-16h-293v16h98zM385 244l-103 303h-2l-98 -303h203zM327 911q37 0 63.5 -26.5t26.5 -63.5t-26.5 -63.5t-63.5 -26.5t-63.5 26.5t-26.5 63.5
t26.5 63.5t63.5 26.5zM327 881q-25 0 -42.5 -18t-17.5 -42t17.5 -42t42.5 -18t42.5 18t17.5 42t-17.5 42t-42.5 18z" />
    <glyph glyph-name="AE" unicode="&#xc6;" horiz-adv-x="1000" 
d="M568 688v-322h75q30 0 51.5 7.5t33.5 18.5t18.5 29t8.5 34t2 39h16v-266h-16q0 65 -21 93.5t-94 28.5h-74v-334h118q54 0 88 3.5t66 14t49 31.5t27 55t10 85h16v-205h-586v16h110v212h-239l-68 -127q-23 -41 -23 -62q0 -23 56 -23h37v-16h-219v16h19q35 0 57.5 16
t42.5 53l328 603h-107v16h542l12 -170h-16q0 154 -182 154h-138zM466 244v424h-2l-229 -424h231z" />
    <glyph glyph-name="Ccedilla" unicode="&#xc7;" horiz-adv-x="667" 
d="M597 690v-214h-16q0 88 -65 158t-155 70q-51 0 -89 -24.5t-59 -61t-34 -87t-16.5 -92t-3.5 -87.5t3.5 -87.5t16.5 -92t34 -87t59 -61t89 -24.5q92 0 156 76t64 173h16v-237h-16q0 18 -9 34t-25 16q-11 0 -36 -19t-64 -38.5t-83 -20.5l-41 -68l2 -2q23 10 61 10
q29 0 54 -17t25 -45q0 -41 -35.5 -59.5t-80.5 -18.5q-43 0 -105 22l8 13q31 -11 69 -11q66 -3 66 52q0 16 -10 28t-28 12q-20 0 -41 -6l-17 7l51 84q-122 8 -209.5 114t-87.5 253q0 152 94 260t222 108q44 0 81.5 -18t62.5 -36.5t39 -18.5q37 0 37 43h16z" />
    <glyph glyph-name="Egrave" unicode="&#xc8;" horiz-adv-x="667" 
d="M105 16v672h-88v16h533l12 -170h-16q0 154 -182 154h-157v-322h75q30 0 51.5 7.5t33.5 18.5t18.5 29t8.5 34t2 39h16v-266h-16q0 65 -21 93.5t-94 28.5h-74v-334h137q54 0 88 3.5t66 14t49 31.5t27 55t10 85h16v-205h-583v16h88zM378 772l-145 90q-17 11 -23 15.5
t-11.5 12t-5.5 17.5q0 14 10.5 24t21.5 10q18 0 43 -25l145 -144h-35z" />
    <glyph glyph-name="Eacute" unicode="&#xc9;" horiz-adv-x="667" 
d="M105 16v672h-88v16h533l12 -170h-16q0 154 -182 154h-157v-322h75q30 0 51.5 7.5t33.5 18.5t18.5 29t8.5 34t2 39h16v-266h-16q0 65 -21 93.5t-94 28.5h-74v-334h137q54 0 88 3.5t66 14t49 31.5t27 55t10 85h16v-205h-583v16h88zM255 772l145 144q25 25 43 25
q11 0 21.5 -10t10.5 -24q0 -10 -5.5 -17.5t-11.5 -12t-23 -15.5l-145 -90h-35z" />
    <glyph glyph-name="Ecircumflex" unicode="&#xca;" horiz-adv-x="667" 
d="M105 16v672h-88v16h533l12 -170h-16q0 154 -182 154h-157v-322h75q30 0 51.5 7.5t33.5 18.5t18.5 29t8.5 34t2 39h16v-266h-16q0 65 -21 93.5t-94 28.5h-74v-334h137q54 0 88 3.5t66 14t49 31.5t27 55t10 85h16v-205h-583v16h88zM184 772l122 169h56l122 -169h-33
l-117 106l-117 -106h-33z" />
    <glyph glyph-name="Edieresis" unicode="&#xcb;" horiz-adv-x="667" 
d="M105 16v672h-88v16h533l12 -170h-16q0 154 -182 154h-157v-322h75q30 0 51.5 7.5t33.5 18.5t18.5 29t8.5 34t2 39h16v-266h-16q0 65 -21 93.5t-94 28.5h-74v-334h137q54 0 88 3.5t66 14t49 31.5t27 55t10 85h16v-205h-583v16h88zM428 882q18 0 31.5 -13.5t13.5 -31.5
t-13.5 -31.5t-31.5 -13.5q-19 0 -32 13.5t-13 31.5t13 31.5t32 13.5zM240 882q18 0 31.5 -13.5t13.5 -31.5t-13.5 -31.5t-31.5 -13.5q-19 0 -32 13.5t-13 31.5t13 31.5t32 13.5z" />
    <glyph glyph-name="Igrave" unicode="&#xcc;" horiz-adv-x="334" 
d="M116 16v672h-91v16h284v-16h-91v-672h91v-16h-284v16h91zM211 772l-145 90q-17 11 -23 15.5t-11.5 12t-5.5 17.5q0 14 10.5 24t21.5 10q18 0 43 -25l145 -144h-35z" />
    <glyph glyph-name="Iacute" unicode="&#xcd;" horiz-adv-x="334" 
d="M116 16v672h-91v16h284v-16h-91v-672h91v-16h-284v16h91zM88 772l145 144q25 25 43 25q11 0 21.5 -10t10.5 -24q0 -10 -5.5 -17.5t-11.5 -12t-23 -15.5l-145 -90h-35z" />
    <glyph glyph-name="Icircumflex" unicode="&#xce;" horiz-adv-x="334" 
d="M116 16v672h-91v16h284v-16h-91v-672h91v-16h-284v16h91zM17 772l122 169h56l122 -169h-33l-117 106l-117 -106h-33z" />
    <glyph glyph-name="Idieresis" unicode="&#xcf;" horiz-adv-x="334" 
d="M116 16v672h-91v16h284v-16h-91v-672h91v-16h-284v16h91zM261 882q18 0 31.5 -13.5t13.5 -31.5t-13.5 -31.5t-31.5 -13.5q-19 0 -32 13.5t-13 31.5t13 31.5t32 13.5zM73 882q18 0 31.5 -13.5t13.5 -31.5t-13.5 -31.5t-31.5 -13.5q-19 0 -32 13.5t-13 31.5t13 31.5
t32 13.5z" />
    <glyph glyph-name="Eth" unicode="&#xd0;" horiz-adv-x="722" 
d="M207 688v-288h168v-16h-168v-368h86q33 0 62 5.5t66.5 26t64.5 55t45.5 99t18.5 150.5q0 71 -12 126t-42.5 105t-91 77.5t-148.5 27.5h-49zM105 16v368h-77v16h77v288h-95v16h313q76 0 137 -24t98 -61t62 -85.5t34.5 -93.5t9.5 -88q0 -162 -92.5 -257t-247.5 -95h-314v16
h95z" />
    <glyph glyph-name="Ntilde" unicode="&#xd1;" horiz-adv-x="722" 
d="M603 -6l-479 662h-2v-583q0 -35 13 -46t49 -11h40v-16h-214v16h34q36 0 49 11t13 46v615h-96v16h210l378 -522h2v452q0 32 -10 43t-42 11h-47v16h211v-16h-44q-32 0 -42 -11t-10 -43v-640h-13zM498 898h26q-13 -44 -39.5 -73t-68.5 -29q-32 0 -74 24q-43 24 -63 24
q-40 0 -55 -48h-26q13 44 39.5 73t68.5 29q32 0 74 -24q43 -24 63 -24q40 0 55 48z" />
    <glyph glyph-name="Ograve" unicode="&#xd2;" horiz-adv-x="722" 
d="M45 352q0 152 94 260t222 108t222 -108t94 -260t-94 -260t-222 -108t-222 108t-94 260zM159 352q0 -46 3.5 -87.5t16.5 -92t34 -87t59 -61t89 -24.5t89 24.5t59 61t34 87t16.5 92t3.5 87.5t-3.5 87.5t-16.5 92t-34 87t-59 61t-89 24.5t-89 -24.5t-59 -61t-34 -87
t-16.5 -92t-3.5 -87.5zM405 772l-145 90q-17 11 -23 15.5t-11.5 12t-5.5 17.5q0 14 10.5 24t21.5 10q18 0 43 -25l145 -144h-35z" />
    <glyph glyph-name="Oacute" unicode="&#xd3;" horiz-adv-x="722" 
d="M45 352q0 152 94 260t222 108t222 -108t94 -260t-94 -260t-222 -108t-222 108t-94 260zM159 352q0 -46 3.5 -87.5t16.5 -92t34 -87t59 -61t89 -24.5t89 24.5t59 61t34 87t16.5 92t3.5 87.5t-3.5 87.5t-16.5 92t-34 87t-59 61t-89 24.5t-89 -24.5t-59 -61t-34 -87
t-16.5 -92t-3.5 -87.5zM282 772l145 144q25 25 43 25q11 0 21.5 -10t10.5 -24q0 -10 -5.5 -17.5t-11.5 -12t-23 -15.5l-145 -90h-35z" />
    <glyph glyph-name="Ocircumflex" unicode="&#xd4;" horiz-adv-x="722" 
d="M45 352q0 152 94 260t222 108t222 -108t94 -260t-94 -260t-222 -108t-222 108t-94 260zM159 352q0 -46 3.5 -87.5t16.5 -92t34 -87t59 -61t89 -24.5t89 24.5t59 61t34 87t16.5 92t3.5 87.5t-3.5 87.5t-16.5 92t-34 87t-59 61t-89 24.5t-89 -24.5t-59 -61t-34 -87
t-16.5 -92t-3.5 -87.5zM211 772l122 169h56l122 -169h-33l-117 106l-117 -106h-33z" />
    <glyph glyph-name="Otilde" unicode="&#xd5;" horiz-adv-x="722" 
d="M45 352q0 152 94 260t222 108t222 -108t94 -260t-94 -260t-222 -108t-222 108t-94 260zM159 352q0 -46 3.5 -87.5t16.5 -92t34 -87t59 -61t89 -24.5t89 24.5t59 61t34 87t16.5 92t3.5 87.5t-3.5 87.5t-16.5 92t-34 87t-59 61t-89 24.5t-89 -24.5t-59 -61t-34 -87
t-16.5 -92t-3.5 -87.5zM498 898h26q-13 -44 -39.5 -73t-68.5 -29q-32 0 -74 24q-43 24 -63 24q-40 0 -55 -48h-26q13 44 39.5 73t68.5 29q32 0 74 -24q43 -24 63 -24q40 0 55 48z" />
    <glyph glyph-name="Odieresis" unicode="&#xd6;" horiz-adv-x="722" 
d="M45 352q0 152 94 260t222 108t222 -108t94 -260t-94 -260t-222 -108t-222 108t-94 260zM159 352q0 -46 3.5 -87.5t16.5 -92t34 -87t59 -61t89 -24.5t89 24.5t59 61t34 87t16.5 92t3.5 87.5t-3.5 87.5t-16.5 92t-34 87t-59 61t-89 24.5t-89 -24.5t-59 -61t-34 -87
t-16.5 -92t-3.5 -87.5zM455 882q18 0 31.5 -13.5t13.5 -31.5t-13.5 -31.5t-31.5 -13.5q-19 0 -32 13.5t-13 31.5t13 31.5t32 13.5zM267 882q18 0 31.5 -13.5t13.5 -31.5t-13.5 -31.5t-31.5 -13.5q-19 0 -32 13.5t-13 31.5t13 31.5t32 13.5z" />
    <glyph glyph-name="multiply" unicode="&#xd7;" horiz-adv-x="600" 
d="M259 253l-186 186l41 41l185 -187l187 187l41 -41l-187 -186l187 -186l-41 -41l-187 187l-185 -187l-41 41z" />
    <glyph glyph-name="Oslash" unicode="&#xd8;" horiz-adv-x="722" 
d="M184 156l347 412q-47 136 -170 136q-51 0 -89 -24.5t-59 -61t-34 -87t-16.5 -92t-3.5 -87.5q0 -116 25 -196zM538 547l-347 -411q46 -136 170 -136q51 0 89 24.5t59 61t34 87t16.5 92t3.5 87.5q0 114 -25 195zM47 -6l88 104q-90 106 -90 254q0 152 94 260t222 108
q124 0 214 -100l86 102l14 -12l-87 -104q89 -108 89 -254q0 -152 -94 -260t-222 -108q-124 0 -214 100l-86 -102z" />
    <glyph glyph-name="Ugrave" unicode="&#xd9;" horiz-adv-x="722" 
d="M10 688v16h303v-16h-106v-523q0 -80 50.5 -122.5t120.5 -42.5q108 0 168 53.5t60 162.5v404q0 40 -13.5 54t-47.5 14h-56v16h232v-16h-45q-32 0 -43 -15t-11 -54v-415q0 -111 -68.5 -165.5t-176.5 -54.5q-135 0 -203.5 43t-68.5 155v506h-95zM405 772l-145 90
q-17 11 -23 15.5t-11.5 12t-5.5 17.5q0 14 10.5 24t21.5 10q18 0 43 -25l145 -144h-35z" />
    <glyph glyph-name="Uacute" unicode="&#xda;" horiz-adv-x="722" 
d="M10 688v16h303v-16h-106v-523q0 -80 50.5 -122.5t120.5 -42.5q108 0 168 53.5t60 162.5v404q0 40 -13.5 54t-47.5 14h-56v16h232v-16h-45q-32 0 -43 -15t-11 -54v-415q0 -111 -68.5 -165.5t-176.5 -54.5q-135 0 -203.5 43t-68.5 155v506h-95zM282 772l145 144
q25 25 43 25q11 0 21.5 -10t10.5 -24q0 -10 -5.5 -17.5t-11.5 -12t-23 -15.5l-145 -90h-35z" />
    <glyph glyph-name="Ucircumflex" unicode="&#xdb;" horiz-adv-x="722" 
d="M10 688v16h303v-16h-106v-523q0 -80 50.5 -122.5t120.5 -42.5q108 0 168 53.5t60 162.5v404q0 40 -13.5 54t-47.5 14h-56v16h232v-16h-45q-32 0 -43 -15t-11 -54v-415q0 -111 -68.5 -165.5t-176.5 -54.5q-135 0 -203.5 43t-68.5 155v506h-95zM211 772l122 169h56
l122 -169h-33l-117 106l-117 -106h-33z" />
    <glyph glyph-name="Udieresis" unicode="&#xdc;" horiz-adv-x="722" 
d="M10 688v16h303v-16h-106v-523q0 -80 50.5 -122.5t120.5 -42.5q108 0 168 53.5t60 162.5v404q0 40 -13.5 54t-47.5 14h-56v16h232v-16h-45q-32 0 -43 -15t-11 -54v-415q0 -111 -68.5 -165.5t-176.5 -54.5q-135 0 -203.5 43t-68.5 155v506h-95zM455 882q18 0 31.5 -13.5
t13.5 -31.5t-13.5 -31.5t-31.5 -13.5q-19 0 -32 13.5t-13 31.5t13 31.5t32 13.5zM267 882q18 0 31.5 -13.5t13.5 -31.5t-13.5 -31.5t-31.5 -13.5q-19 0 -32 13.5t-13 31.5t13 31.5t32 13.5z" />
    <glyph glyph-name="Yacute" unicode="&#xdd;" horiz-adv-x="667" 
d="M288 16v242l-187 430h-91v16h291v-16h-83l167 -387l124 280q26 58 26 80q0 27 -45 27h-38v16h205v-16h-42q-14 0 -24 -4t-17.5 -13t-11.5 -16.5t-10 -21.5l-162 -359v-258h106v-16h-314v16h106zM255 772l145 144q25 25 43 25q11 0 21.5 -10t10.5 -24q0 -10 -5.5 -17.5
t-11.5 -12t-23 -15.5l-145 -90h-35z" />
    <glyph glyph-name="Thorn" unicode="&#xde;" horiz-adv-x="611" 
d="M116 16v672h-99v16h303v-16h-102v-96h84q121 0 192.5 -46.5t71.5 -148.5q0 -67 -39.5 -112.5t-94.5 -64t-120 -18.5q-60 0 -94 17v-203h102v-16h-303v16h99zM218 576v-337q32 -21 77 -21q27 0 53.5 8t52.5 26t41.5 53t15.5 83q0 97 -44.5 142.5t-134.5 45.5h-61z" />
    <glyph glyph-name="germandbls" unicode="&#xdf;" horiz-adv-x="611" 
d="M97 16v378h-80v16h80v29q0 121 61 208.5t159 87.5q69 0 119.5 -40t50.5 -105q0 -34 -20.5 -70.5t-45 -61.5t-45 -50.5t-20.5 -39.5q0 -19 32 -33.5t70 -26.5t70 -47t32 -90q0 -80 -43.5 -131.5t-120.5 -51.5q-60 0 -95.5 27.5t-35.5 75.5q0 32 13.5 47t32.5 15t31 -11.5
t12 -31.5q0 -17 -7.5 -26.5t-16 -12.5t-16 -9.5t-7.5 -18.5q0 -39 92 -39q44 0 84.5 30t40.5 80q0 35 -22 59t-54 38t-64 26.5t-54 32t-22 47.5q0 26 20.5 56.5t45 56t45 65.5t20.5 81q0 143 -122 143q-45 0 -74 -19t-41.5 -56t-16.5 -71.5t-4 -86.5v-470h77v-16h-241v16h80
z" />
    <glyph glyph-name="agrave" unicode="&#xe0;" horiz-adv-x="500" 
d="M397 316v-262q0 -44 30 -44q15 0 26.5 10t25.5 30l11 -8q-31 -54 -88 -54q-34 0 -58.5 17.5t-29.5 44.5h-2q-47 -62 -145 -62q-59 0 -92 28t-33 79q0 40 24 69t64 43.5t80.5 21t83.5 6.5h19v123q0 58 -82 58q-31 0 -64 -11.5t-33 -35.5q0 -9 8 -14.5t16.5 -15t8.5 -28.5
q0 -18 -13 -30t-33 -12q-21 0 -32.5 15t-11.5 41q0 42 41.5 74.5t112.5 32.5q63 0 114.5 -31t51.5 -85zM313 219h-17q-29 0 -46 -1t-42.5 -6.5t-39.5 -16.5t-25 -32.5t-11 -52.5q0 -49 14.5 -73.5t58.5 -24.5q50 0 79 27.5t29 48.5v131zM294 552l-145 90q-17 11 -23 15.5
t-11.5 12t-5.5 17.5q0 14 10.5 24t21.5 10q18 0 43 -25l145 -144h-35z" />
    <glyph glyph-name="aacute" unicode="&#xe1;" horiz-adv-x="500" 
d="M397 316v-262q0 -44 30 -44q15 0 26.5 10t25.5 30l11 -8q-31 -54 -88 -54q-34 0 -58.5 17.5t-29.5 44.5h-2q-47 -62 -145 -62q-59 0 -92 28t-33 79q0 40 24 69t64 43.5t80.5 21t83.5 6.5h19v123q0 58 -82 58q-31 0 -64 -11.5t-33 -35.5q0 -9 8 -14.5t16.5 -15t8.5 -28.5
q0 -18 -13 -30t-33 -12q-21 0 -32.5 15t-11.5 41q0 42 41.5 74.5t112.5 32.5q63 0 114.5 -31t51.5 -85zM313 219h-17q-29 0 -46 -1t-42.5 -6.5t-39.5 -16.5t-25 -32.5t-11 -52.5q0 -49 14.5 -73.5t58.5 -24.5q50 0 79 27.5t29 48.5v131zM171 552l145 144q25 25 43 25
q11 0 21.5 -10t10.5 -24q0 -10 -5.5 -17.5t-11.5 -12t-23 -15.5l-145 -90h-35z" />
    <glyph glyph-name="acircumflex" unicode="&#xe2;" horiz-adv-x="500" 
d="M397 316v-262q0 -44 30 -44q15 0 26.5 10t25.5 30l11 -8q-31 -54 -88 -54q-34 0 -58.5 17.5t-29.5 44.5h-2q-47 -62 -145 -62q-59 0 -92 28t-33 79q0 40 24 69t64 43.5t80.5 21t83.5 6.5h19v123q0 58 -82 58q-31 0 -64 -11.5t-33 -35.5q0 -9 8 -14.5t16.5 -15t8.5 -28.5
q0 -18 -13 -30t-33 -12q-21 0 -32.5 15t-11.5 41q0 42 41.5 74.5t112.5 32.5q63 0 114.5 -31t51.5 -85zM313 219h-17q-29 0 -46 -1t-42.5 -6.5t-39.5 -16.5t-25 -32.5t-11 -52.5q0 -49 14.5 -73.5t58.5 -24.5q50 0 79 27.5t29 48.5v131zM100 552l122 169h56l122 -169h-33
l-117 106l-117 -106h-33z" />
    <glyph glyph-name="atilde" unicode="&#xe3;" horiz-adv-x="500" 
d="M397 316v-262q0 -44 30 -44q15 0 26.5 10t25.5 30l11 -8q-31 -54 -88 -54q-34 0 -58.5 17.5t-29.5 44.5h-2q-47 -62 -145 -62q-59 0 -92 28t-33 79q0 40 24 69t64 43.5t80.5 21t83.5 6.5h19v123q0 58 -82 58q-31 0 -64 -11.5t-33 -35.5q0 -9 8 -14.5t16.5 -15t8.5 -28.5
q0 -18 -13 -30t-33 -12q-21 0 -32.5 15t-11.5 41q0 42 41.5 74.5t112.5 32.5q63 0 114.5 -31t51.5 -85zM313 219h-17q-29 0 -46 -1t-42.5 -6.5t-39.5 -16.5t-25 -32.5t-11 -52.5q0 -49 14.5 -73.5t58.5 -24.5q50 0 79 27.5t29 48.5v131zM387 678h26q-13 -44 -39.5 -73
t-68.5 -29q-32 0 -74 24q-43 24 -63 24q-40 0 -55 -48h-26q13 44 39.5 73t68.5 29q32 0 74 -24q43 -24 63 -24q40 0 55 48z" />
    <glyph glyph-name="adieresis" unicode="&#xe4;" horiz-adv-x="500" 
d="M397 316v-262q0 -44 30 -44q15 0 26.5 10t25.5 30l11 -8q-31 -54 -88 -54q-34 0 -58.5 17.5t-29.5 44.5h-2q-47 -62 -145 -62q-59 0 -92 28t-33 79q0 40 24 69t64 43.5t80.5 21t83.5 6.5h19v123q0 58 -82 58q-31 0 -64 -11.5t-33 -35.5q0 -9 8 -14.5t16.5 -15t8.5 -28.5
q0 -18 -13 -30t-33 -12q-21 0 -32.5 15t-11.5 41q0 42 41.5 74.5t112.5 32.5q63 0 114.5 -31t51.5 -85zM313 219h-17q-29 0 -46 -1t-42.5 -6.5t-39.5 -16.5t-25 -32.5t-11 -52.5q0 -49 14.5 -73.5t58.5 -24.5q50 0 79 27.5t29 48.5v131zM344 662q18 0 31.5 -13.5t13.5 -31.5
t-13.5 -31.5t-31.5 -13.5q-19 0 -32 13.5t-13 31.5t13 31.5t32 13.5zM156 662q18 0 31.5 -13.5t13.5 -31.5t-13.5 -31.5t-31.5 -13.5q-19 0 -32 13.5t-13 31.5t13 31.5t32 13.5z" />
    <glyph glyph-name="aring" unicode="&#xe5;" horiz-adv-x="500" 
d="M397 316v-262q0 -44 30 -44q15 0 26.5 10t25.5 30l11 -8q-31 -54 -88 -54q-34 0 -58.5 17.5t-29.5 44.5h-2q-47 -62 -145 -62q-59 0 -92 28t-33 79q0 40 24 69t64 43.5t80.5 21t83.5 6.5h19v123q0 58 -82 58q-31 0 -64 -11.5t-33 -35.5q0 -9 8 -14.5t16.5 -15t8.5 -28.5
q0 -18 -13 -30t-33 -12q-21 0 -32.5 15t-11.5 41q0 42 41.5 74.5t112.5 32.5q63 0 114.5 -31t51.5 -85zM313 219h-17q-29 0 -46 -1t-42.5 -6.5t-39.5 -16.5t-25 -32.5t-11 -52.5q0 -49 14.5 -73.5t58.5 -24.5q50 0 79 27.5t29 48.5v131zM250 701q37 0 63.5 -26.5t26.5 -63.5
t-26.5 -63.5t-63.5 -26.5t-63.5 26.5t-26.5 63.5t26.5 63.5t63.5 26.5zM250 671q-25 0 -42.5 -18t-17.5 -42t17.5 -42t42.5 -18t42.5 18t17.5 42t-17.5 42t-42.5 18z" />
    <glyph glyph-name="ae" unicode="&#xe6;" horiz-adv-x="722" 
d="M308 219h-12q-29 0 -46 -1t-42.5 -6.5t-39.5 -16.5t-25 -32.5t-11 -52.5q0 -49 14.5 -73.5t58.5 -24.5t73.5 22.5t29.5 44.5v140zM398 265h181q7 0 7 7v21q0 123 -90 123q-98 0 -98 -123v-28zM398 249v-94q0 -32 3.5 -54t14.5 -46.5t36 -37.5t63 -13q59 0 103.5 38.5
t55.5 98.5h17q-12 -69 -60 -111t-116 -42q-82 0 -126.5 17t-68.5 53q-30 -40 -65.5 -55t-87.5 -15q-59 0 -92 28t-33 79q0 40 24 69t64 43.5t80.5 21t83.5 6.5h14v123q0 58 -77 58q-31 0 -64 -11.5t-33 -35.5q0 -9 8 -14.5t16.5 -15t8.5 -28.5q0 -18 -13 -30t-33 -12
q-21 0 -32.5 15t-11.5 41q0 42 41.5 74.5t112.5 32.5q98 0 144 -51q16 19 48.5 35t72.5 16q44 0 81.5 -21t59 -50.5t33.5 -57t12 -45.5q0 -9 -9 -9h-275z" />
    <glyph glyph-name="ccedilla" unicode="&#xe7;" horiz-adv-x="444" 
d="M402 141h16q-2 -60 -49.5 -106.5t-118.5 -46.5q-4 0 -5 1l-44 -73l2 -2q23 10 61 10q29 0 54 -17t25 -45q0 -41 -35.5 -59.5t-80.5 -18.5q-43 0 -105 22l8 13q31 -11 69 -11q66 -3 66 52q0 16 -10 28t-28 12q-20 0 -41 -6l-17 7l53 90q-83 8 -133.5 65t-50.5 137
q0 98 64.5 168.5t153.5 70.5q57 0 100.5 -24.5t43.5 -68.5q0 -22 -14.5 -36t-33.5 -14q-22 0 -35 13t-13 30q0 23 12.5 36t12.5 17q0 15 -24.5 23t-50.5 8q-68 0 -94 -40t-26 -118v-87q0 -27 1 -43.5t4 -38t11 -35t20 -26t32.5 -18.5t47.5 -6q69 0 107.5 41.5t44.5 95.5z
" />
    <glyph glyph-name="egrave" unicode="&#xe8;" horiz-adv-x="444" 
d="M134 249v-94q0 -31 3 -54t12.5 -47t31.5 -37t56 -13q62 0 105.5 38t54.5 100h16q-12 -70 -60 -112t-116 -42q-88 0 -143.5 61.5t-55.5 160.5q0 78 55 150t132 72q41 0 77 -21t57 -50.5t33 -57.5t12 -45q0 -9 -9 -9h-261zM308 272v21q0 123 -83 123q-91 0 -91 -123v-28
h167q7 0 7 7zM266 552l-145 90q-17 11 -23 15.5t-11.5 12t-5.5 17.5q0 14 10.5 24t21.5 10q18 0 43 -25l145 -144h-35z" />
    <glyph glyph-name="eacute" unicode="&#xe9;" horiz-adv-x="444" 
d="M134 249v-94q0 -31 3 -54t12.5 -47t31.5 -37t56 -13q62 0 105.5 38t54.5 100h16q-12 -70 -60 -112t-116 -42q-88 0 -143.5 61.5t-55.5 160.5q0 78 55 150t132 72q41 0 77 -21t57 -50.5t33 -57.5t12 -45q0 -9 -9 -9h-261zM308 272v21q0 123 -83 123q-91 0 -91 -123v-28
h167q7 0 7 7zM143 552l145 144q25 25 43 25q11 0 21.5 -10t10.5 -24q0 -10 -5.5 -17.5t-11.5 -12t-23 -15.5l-145 -90h-35z" />
    <glyph glyph-name="ecircumflex" unicode="&#xea;" horiz-adv-x="444" 
d="M134 249v-94q0 -31 3 -54t12.5 -47t31.5 -37t56 -13q62 0 105.5 38t54.5 100h16q-12 -70 -60 -112t-116 -42q-88 0 -143.5 61.5t-55.5 160.5q0 78 55 150t132 72q41 0 77 -21t57 -50.5t33 -57.5t12 -45q0 -9 -9 -9h-261zM308 272v21q0 123 -83 123q-91 0 -91 -123v-28
h167q7 0 7 7zM72 552l122 169h56l122 -169h-33l-117 106l-117 -106h-33z" />
    <glyph glyph-name="edieresis" unicode="&#xeb;" horiz-adv-x="444" 
d="M134 249v-94q0 -31 3 -54t12.5 -47t31.5 -37t56 -13q62 0 105.5 38t54.5 100h16q-12 -70 -60 -112t-116 -42q-88 0 -143.5 61.5t-55.5 160.5q0 78 55 150t132 72q41 0 77 -21t57 -50.5t33 -57.5t12 -45q0 -9 -9 -9h-261zM308 272v21q0 123 -83 123q-91 0 -91 -123v-28
h167q7 0 7 7zM316 662q18 0 31.5 -13.5t13.5 -31.5t-13.5 -31.5t-31.5 -13.5q-19 0 -32 13.5t-13 31.5t13 31.5t32 13.5zM128 662q18 0 31.5 -13.5t13.5 -31.5t-13.5 -31.5t-31.5 -13.5q-19 0 -32 13.5t-13 31.5t13 31.5t32 13.5z" />
    <glyph glyph-name="igrave" unicode="&#xec;" 
d="M97 16v378h-80v16h80q62 0 84 22v-416h80v-16h-244v16h80zM183 552l-145 90q-17 11 -23 15.5t-11.5 12t-5.5 17.5q0 14 10.5 24t21.5 10q18 0 43 -25l145 -144h-35z" />
    <glyph glyph-name="iacute" unicode="&#xed;" 
d="M97 16v378h-80v16h80q62 0 84 22v-416h80v-16h-244v16h80zM60 552l145 144q25 25 43 25q11 0 21.5 -10t10.5 -24q0 -10 -5.5 -17.5t-11.5 -12t-23 -15.5l-145 -90h-35z" />
    <glyph glyph-name="icircumflex" unicode="&#xee;" 
d="M97 16v378h-80v16h80q62 0 84 22v-416h80v-16h-244v16h80zM-11 552l122 169h56l122 -169h-33l-117 106l-117 -106h-33z" />
    <glyph glyph-name="idieresis" unicode="&#xef;" 
d="M97 16v378h-80v16h80q62 0 84 22v-416h80v-16h-244v16h80zM233 662q18 0 31.5 -13.5t13.5 -31.5t-13.5 -31.5t-31.5 -13.5q-19 0 -32 13.5t-13 31.5t13 31.5t32 13.5zM45 662q18 0 31.5 -13.5t13.5 -31.5t-13.5 -31.5t-31.5 -13.5q-19 0 -32 13.5t-13 31.5t13 31.5
t32 13.5z" />
    <glyph glyph-name="eth" unicode="&#xf0;" horiz-adv-x="500" 
d="M132 572l102 57q-52 50 -118 79l9 12q83 -24 145 -72l98 55l10 -14l-92 -51q19 -13 38.5 -31t45.5 -52t45.5 -74.5t33 -100.5t13.5 -128q0 -128 -57 -196t-155 -68q-94 0 -153 66t-59 156t59 156t153 66q72 0 114 -46h2q-15 62 -49 128t-70 102l-105 -58zM366 171v78
q0 27 -1 43.5t-4 38t-11 35t-20 26t-32.5 18.5t-47.5 6t-47.5 -6t-32.5 -18.5t-20 -26t-11 -35t-4 -38t-1 -43.5v-78q0 -27 1 -43.5t4 -38t11 -35t20 -26t32.5 -18.5t47.5 -6t47.5 6t32.5 18.5t20 26t11 35t4 38t1 43.5z" />
    <glyph glyph-name="ntilde" unicode="&#xf1;" horiz-adv-x="556" 
d="M92 16v378h-79v16h79q40 0 55.5 3.5t28.5 18.5v-102h2q23 42 61 72t88 30q137 0 137 -113v-303h79v-16h-242v16h79v327q0 73 -59 73q-29 0 -54.5 -12.5t-44 -35.5t-27 -36t-19.5 -34v-282h76v-16h-239v16h79zM415 678h26q-13 -44 -39.5 -73t-68.5 -29q-32 0 -74 24
q-43 24 -63 24q-40 0 -55 -48h-26q13 44 39.5 73t68.5 29q32 0 74 -24q43 -24 63 -24q40 0 55 48z" />
    <glyph glyph-name="ograve" unicode="&#xf2;" horiz-adv-x="500" 
d="M38 210q0 90 59 156t153 66t153 -66t59 -156t-59 -156t-153 -66t-153 66t-59 156zM366 171v78q0 27 -1 43.5t-4 38t-11 35t-20 26t-32.5 18.5t-47.5 6t-47.5 -6t-32.5 -18.5t-20 -26t-11 -35t-4 -38t-1 -43.5v-78q0 -27 1 -43.5t4 -38t11 -35t20 -26t32.5 -18.5t47.5 -6
t47.5 6t32.5 18.5t20 26t11 35t4 38t1 43.5zM294 552l-145 90q-17 11 -23 15.5t-11.5 12t-5.5 17.5q0 14 10.5 24t21.5 10q18 0 43 -25l145 -144h-35z" />
    <glyph glyph-name="oacute" unicode="&#xf3;" horiz-adv-x="500" 
d="M38 210q0 90 59 156t153 66t153 -66t59 -156t-59 -156t-153 -66t-153 66t-59 156zM366 171v78q0 27 -1 43.5t-4 38t-11 35t-20 26t-32.5 18.5t-47.5 6t-47.5 -6t-32.5 -18.5t-20 -26t-11 -35t-4 -38t-1 -43.5v-78q0 -27 1 -43.5t4 -38t11 -35t20 -26t32.5 -18.5t47.5 -6
t47.5 6t32.5 18.5t20 26t11 35t4 38t1 43.5zM171 552l145 144q25 25 43 25q11 0 21.5 -10t10.5 -24q0 -10 -5.5 -17.5t-11.5 -12t-23 -15.5l-145 -90h-35z" />
    <glyph glyph-name="ocircumflex" unicode="&#xf4;" horiz-adv-x="500" 
d="M38 210q0 90 59 156t153 66t153 -66t59 -156t-59 -156t-153 -66t-153 66t-59 156zM366 171v78q0 27 -1 43.5t-4 38t-11 35t-20 26t-32.5 18.5t-47.5 6t-47.5 -6t-32.5 -18.5t-20 -26t-11 -35t-4 -38t-1 -43.5v-78q0 -27 1 -43.5t4 -38t11 -35t20 -26t32.5 -18.5t47.5 -6
t47.5 6t32.5 18.5t20 26t11 35t4 38t1 43.5zM100 552l122 169h56l122 -169h-33l-117 106l-117 -106h-33z" />
    <glyph glyph-name="otilde" unicode="&#xf5;" horiz-adv-x="500" 
d="M38 210q0 90 59 156t153 66t153 -66t59 -156t-59 -156t-153 -66t-153 66t-59 156zM366 171v78q0 27 -1 43.5t-4 38t-11 35t-20 26t-32.5 18.5t-47.5 6t-47.5 -6t-32.5 -18.5t-20 -26t-11 -35t-4 -38t-1 -43.5v-78q0 -27 1 -43.5t4 -38t11 -35t20 -26t32.5 -18.5t47.5 -6
t47.5 6t32.5 18.5t20 26t11 35t4 38t1 43.5zM387 678h26q-13 -44 -39.5 -73t-68.5 -29q-32 0 -74 24q-43 24 -63 24q-40 0 -55 -48h-26q13 44 39.5 73t68.5 29q32 0 74 -24q43 -24 63 -24q40 0 55 48z" />
    <glyph glyph-name="odieresis" unicode="&#xf6;" horiz-adv-x="500" 
d="M38 210q0 90 59 156t153 66t153 -66t59 -156t-59 -156t-153 -66t-153 66t-59 156zM366 171v78q0 27 -1 43.5t-4 38t-11 35t-20 26t-32.5 18.5t-47.5 6t-47.5 -6t-32.5 -18.5t-20 -26t-11 -35t-4 -38t-1 -43.5v-78q0 -27 1 -43.5t4 -38t11 -35t20 -26t32.5 -18.5t47.5 -6
t47.5 6t32.5 18.5t20 26t11 35t4 38t1 43.5zM344 662q18 0 31.5 -13.5t13.5 -31.5t-13.5 -31.5t-31.5 -13.5q-19 0 -32 13.5t-13 31.5t13 31.5t32 13.5zM156 662q18 0 31.5 -13.5t13.5 -31.5t-13.5 -31.5t-31.5 -13.5q-19 0 -32 13.5t-13 31.5t13 31.5t32 13.5z" />
    <glyph glyph-name="divide" unicode="&#xf7;" horiz-adv-x="600" 
d="M47 223v60h506v-60h-506zM240 460q0 25 18 42.5t42 17.5t42 -18t18 -42q0 -23 -18 -41.5t-42 -18.5t-42 18t-18 42zM240 46q0 25 18 42.5t42 17.5t42 -18t18 -42q0 -23 -18 -41.5t-42 -18.5t-42 18t-18 42z" />
    <glyph glyph-name="oslash" unicode="&#xf8;" horiz-adv-x="500" 
d="M138 105l220 232q-17 79 -108 79q-27 0 -47.5 -6t-32.5 -18.5t-20 -26t-11 -35t-4 -38t-1 -43.5v-78q0 -38 4 -66zM363 316l-222 -233q17 -79 109 -79q27 0 47.5 6t32.5 18.5t20 26t11 35t4 38t1 43.5v78q0 46 -3 67zM34 -4l60 63q-56 62 -56 151q0 90 59 156t153 66
q86 0 143 -59l60 63l13 -12l-60 -63q56 -62 56 -151q0 -90 -59 -156t-153 -66q-88 0 -144 58l-59 -62z" />
    <glyph glyph-name="ugrave" unicode="&#xf9;" horiz-adv-x="556" 
d="M97 99v295h-80v16h80q62 0 84 22v-358q0 -32 16.5 -51t45.5 -19q51 0 91.5 48t40.5 105v237h-79v16h79q62 0 84 22v-416h80v-16h-164v91h-2q-5 -12 -14 -26.5t-25.5 -33t-43 -31t-57.5 -12.5q-70 0 -103 31.5t-33 79.5zM322 552l-145 90q-17 11 -23 15.5t-11.5 12
t-5.5 17.5q0 14 10.5 24t21.5 10q18 0 43 -25l145 -144h-35z" />
    <glyph glyph-name="uacute" unicode="&#xfa;" horiz-adv-x="556" 
d="M97 99v295h-80v16h80q62 0 84 22v-358q0 -32 16.5 -51t45.5 -19q51 0 91.5 48t40.5 105v237h-79v16h79q62 0 84 22v-416h80v-16h-164v91h-2q-5 -12 -14 -26.5t-25.5 -33t-43 -31t-57.5 -12.5q-70 0 -103 31.5t-33 79.5zM199 552l145 144q25 25 43 25q11 0 21.5 -10
t10.5 -24q0 -10 -5.5 -17.5t-11.5 -12t-23 -15.5l-145 -90h-35z" />
    <glyph glyph-name="ucircumflex" unicode="&#xfb;" horiz-adv-x="556" 
d="M97 99v295h-80v16h80q62 0 84 22v-358q0 -32 16.5 -51t45.5 -19q51 0 91.5 48t40.5 105v237h-79v16h79q62 0 84 22v-416h80v-16h-164v91h-2q-5 -12 -14 -26.5t-25.5 -33t-43 -31t-57.5 -12.5q-70 0 -103 31.5t-33 79.5zM128 552l122 169h56l122 -169h-33l-117 106
l-117 -106h-33z" />
    <glyph glyph-name="udieresis" unicode="&#xfc;" horiz-adv-x="556" 
d="M97 99v295h-80v16h80q62 0 84 22v-358q0 -32 16.5 -51t45.5 -19q51 0 91.5 48t40.5 105v237h-79v16h79q62 0 84 22v-416h80v-16h-164v91h-2q-5 -12 -14 -26.5t-25.5 -33t-43 -31t-57.5 -12.5q-70 0 -103 31.5t-33 79.5zM372 662q18 0 31.5 -13.5t13.5 -31.5t-13.5 -31.5
t-31.5 -13.5q-19 0 -32 13.5t-13 31.5t13 31.5t32 13.5zM184 662q18 0 31.5 -13.5t13.5 -31.5t-13.5 -31.5t-31.5 -13.5q-19 0 -32 13.5t-13 31.5t13 31.5t32 13.5z" />
    <glyph glyph-name="yacute" unicode="&#xfd;" horiz-adv-x="500" 
d="M156 394l132 -313l94 239q13 34 13 48q0 15 -13.5 20.5t-44.5 5.5h-41v16h195v-16q-45 0 -58.5 -11.5t-32.5 -57.5l-89 -224q-51 -128 -57 -151q-33 -131 -55.5 -175.5t-71.5 -44.5q-25 0 -40 14t-15 38q0 21 13 34.5t35 13.5q18 0 30 -11.5t12 -26.5q0 -4 -0.5 -9
t-0.5 -7q0 -10 8 -10q10 0 20 17t19.5 46t15.5 53t12.5 54t7.5 32l-185 426h-54v16h223v-16h-72zM171 552l145 144q25 25 43 25q11 0 21.5 -10t10.5 -24q0 -10 -5.5 -17.5t-11.5 -12t-23 -15.5l-145 -90h-35z" />
    <glyph glyph-name="thorn" unicode="&#xfe;" horiz-adv-x="556" 
d="M79 -254v948h-69v16h69q62 0 84 25v-405h2q16 41 52 71.5t86 30.5q85 0 142 -71t57 -151q0 -91 -57.5 -156.5t-148.5 -65.5q-51 0 -83.5 26t-47.5 59h-2v-327h77v-16h-230v16h69zM163 261v-117q0 -60 37 -100t96 -40q70 0 90 43t20 163q0 111 -20.5 158.5t-82.5 47.5
q-59 0 -99.5 -48.5t-40.5 -106.5z" />
    <glyph glyph-name="ydieresis" unicode="&#xff;" horiz-adv-x="500" 
d="M156 394l132 -313l94 239q13 34 13 48q0 15 -13.5 20.5t-44.5 5.5h-41v16h195v-16q-45 0 -58.5 -11.5t-32.5 -57.5l-89 -224q-51 -128 -57 -151q-33 -131 -55.5 -175.5t-71.5 -44.5q-25 0 -40 14t-15 38q0 21 13 34.5t35 13.5q18 0 30 -11.5t12 -26.5q0 -4 -0.5 -9
t-0.5 -7q0 -10 8 -10q10 0 20 17t19.5 46t15.5 53t12.5 54t7.5 32l-185 426h-54v16h223v-16h-72zM344 662q18 0 31.5 -13.5t13.5 -31.5t-13.5 -31.5t-31.5 -13.5q-19 0 -32 13.5t-13 31.5t13 31.5t32 13.5zM156 662q18 0 31.5 -13.5t13.5 -31.5t-13.5 -31.5t-31.5 -13.5
q-19 0 -32 13.5t-13 31.5t13 31.5t32 13.5z" />
    <glyph glyph-name="dotlessi" unicode="&#x131;" 
d="M97 16v378h-80v16h80q62 0 84 22v-416h80v-16h-244v16h80z" />
    <glyph glyph-name="Lslash" unicode="&#x141;" horiz-adv-x="667" 
d="M125 16v310l-97 -64v22l97 64v340h-100v16h302v-16h-100v-273l169 112v-22l-169 -111v-378h125q78 0 121.5 6.5t75.5 29.5t43.5 64.5t11.5 113.5h16v-230h-595v16h100z" />
    <glyph glyph-name="lslash" unicode="&#x142;" 
d="M97 16v339l-80 -52v21l80 52v318h-80v16h79q63 0 85 25v-305l80 52v-21l-80 -52v-393h80v-16h-244v16h80z" />
    <glyph glyph-name="OE" unicode="&#x152;" horiz-adv-x="1000" 
d="M477 10v684q-64 10 -106 10q-48 0 -85 -16t-59.5 -46t-37 -62.5t-20.5 -77t-8 -76.5t-2 -74t2 -74t8 -76.5t20.5 -77t37 -62.5t59.5 -46t85 -16q42 0 106 10zM579 688v-322h64q30 0 51.5 7.5t33.5 18.5t18.5 29t8.5 34t2 39h16v-266h-16q0 65 -21 93.5t-94 28.5h-63v-334
h107q54 0 88 3.5t66 14t49 31.5t27 55t10 85h16v-205h-370q-32 0 -96 -8q-70 -8 -105 -8q-80 0 -144 34t-102.5 88.5t-59 118t-20.5 127.5t20.5 127.5t59 118t102.5 88.5t144 34q34 0 102 -8q70 -8 106 -8h313l12 -170h-16q0 154 -182 154h-127z" />
    <glyph glyph-name="oe" unicode="&#x153;" horiz-adv-x="778" 
d="M454 249v-94q0 -32 3.5 -54t14.5 -46.5t36 -37.5t63 -13q62 0 105.5 38t54.5 99h16q-12 -69 -60 -111t-116 -42q-62 0 -97.5 17.5t-67.5 56.5q-59 -74 -156 -74q-94 0 -153 66t-59 156t59 156t153 66q104 0 165 -80q56 80 137 80q44 0 81.5 -21t59 -50.5t33.5 -57
t12 -45.5q0 -9 -9 -9h-275zM134 210q0 -35 0.5 -52t2.5 -44t6 -39.5t12.5 -29t21 -23.5t30.5 -12.5t43 -5.5q28 0 48 5.5t32.5 20.5t19.5 28.5t10 42.5t3.5 48.5t0.5 60.5t-0.5 60.5t-3.5 48.5t-10 42.5t-19.5 28.5t-32.5 20.5t-48 5.5q-25 0 -43 -5.5t-30.5 -12.5
t-21 -23.5t-12.5 -29t-6 -39.5t-2.5 -44t-0.5 -52zM454 265h181q7 0 7 7v21q0 123 -90 123q-98 0 -98 -123v-28z" />
    <glyph glyph-name="Scaron" unicode="&#x160;" horiz-adv-x="556" 
d="M54 -6v253h16q0 -120 62 -183.5t157 -63.5q72 0 118.5 42t46.5 109q0 75 -39 107t-130 46q-44 7 -72 13.5t-57 17t-45.5 25.5t-31 37t-20 53t-5.5 73q0 86 52 141.5t135 55.5q35 0 66 -9.5t48 -21t34 -21t28 -9.5q4 0 7.5 1t6 3t5 5t3.5 5t2.5 6.5l2 6t1.5 6t1 5.5h16
v-210h-16q-7 93 -58.5 155t-146.5 62q-65 0 -105 -40t-40 -108q0 -67 37 -92t163 -48q113 -20 159.5 -64t46.5 -139q0 -102 -56 -165.5t-161 -63.5q-58 0 -118.5 26t-71.5 26q-25 0 -25 -42h-16zM428 941l-122 -169h-56l-122 169h33l117 -106l117 106h33z" />
    <glyph glyph-name="scaron" unicode="&#x161;" horiz-adv-x="389" 
d="M51 -6l-2 151h13q22 -141 139 -141q42 0 69.5 25.5t27.5 67.5q0 26 -8 43t-25.5 25.5t-31 11t-38.5 5.5q-7 1 -10 1q-31 3 -48.5 7.5t-39 16t-31 35.5t-9.5 61q0 56 34 92.5t91 36.5q24 0 46.5 -9t37 -17.5t17.5 -8.5q7 0 7 21v8h14l4 -119h-13q-13 109 -116 109
q-40 0 -66 -21t-26 -59q0 -37 26.5 -54t78.5 -20l34 -2q114 -7 114 -118q0 -68 -40 -111t-99 -43q-35 0 -61 11t-40.5 21.5t-21.5 10.5q-4 0 -6 -1.5t-3 -5.5t-1.5 -7.5t-1 -10.5t-0.5 -12h-15zM345 721l-122 -169h-56l-122 169h33l117 -106l117 106h33z" />
    <glyph glyph-name="Ydieresis" unicode="&#x178;" horiz-adv-x="667" 
d="M288 16v242l-187 430h-91v16h291v-16h-83l167 -387l124 280q26 58 26 80q0 27 -45 27h-38v16h205v-16h-42q-14 0 -24 -4t-17.5 -13t-11.5 -16.5t-10 -21.5l-162 -359v-258h106v-16h-314v16h106zM428 882q18 0 31.5 -13.5t13.5 -31.5t-13.5 -31.5t-31.5 -13.5
q-19 0 -32 13.5t-13 31.5t13 31.5t32 13.5zM240 882q18 0 31.5 -13.5t13.5 -31.5t-13.5 -31.5t-31.5 -13.5q-19 0 -32 13.5t-13 31.5t13 31.5t32 13.5z" />
    <glyph glyph-name="Zcaron" unicode="&#x17d;" horiz-adv-x="667" 
d="M38 0l426 688h-161q-50 0 -86 -5.5t-58.5 -19t-35.5 -26.5t-18.5 -37.5t-7 -41.5t-1.5 -48h-16v194h511l-428 -688h119q42 0 69.5 1t66.5 5t64.5 14t50 25t36.5 40t12 59v40h16v-200h-559zM484 941l-122 -169h-56l-122 169h33l117 -106l117 106h33z" />
    <glyph glyph-name="zcaron" unicode="&#x17e;" horiz-adv-x="444" 
d="M17 0l287 394h-95q-81 0 -109.5 -34.5t-28.5 -103.5h-16v154h363l-285 -394h98q81 0 112.5 28t31.5 105h16v-149h-374zM372 721l-122 -169h-56l-122 169h33l117 -106l117 106h33z" />
    <glyph glyph-name="florin" unicode="&#x192;" horiz-adv-x="556" 
d="M99 357h138l11 69q7 42 22 87t39 91.5t62 76t82 29.5q30 0 54 -20.5t24 -52.5q0 -25 -12 -40.5t-35 -15.5q-21 0 -32 13t-11 32q1 17 13.5 30t12.5 24q0 14 -27 14q-31 0 -52 -30.5t-31 -72.5t-17 -107l-15 -127h141v-16h-143l-26 -193q-8 -59 -16 -102.5t-23.5 -100.5
t-35 -93t-50.5 -61.5t-69 -25.5q-78 0 -78 63q0 20 12.5 32t31.5 12q40 0 40 -41q0 -7 -5.5 -19t-5.5 -20q0 -11 11 -11q79 0 95 191l31 369h-136v16z" />
    <glyph glyph-name="circumflex" unicode="&#x2c6;" 
d="M-11 516l122 169h56l122 -169h-33l-117 106l-117 -106h-33z" />
    <glyph glyph-name="caron" unicode="&#x2c7;" 
d="M289 685l-122 -169h-56l-122 169h33l117 -106l117 106h33z" />
    <glyph glyph-name="uni02C9" unicode="&#x2c9;" 
d="M6 557v48h266v-48h-266z" />
    <glyph glyph-name="breve" unicode="&#x2d8;" 
d="M0 671h30q17 -101 109 -101t109 101h30q-6 -70 -41 -112.5t-98 -42.5t-98 42.5t-41 112.5z" />
    <glyph glyph-name="dotaccent" unicode="&#x2d9;" 
d="M139 626q18 0 31.5 -13.5t13.5 -31.5t-13.5 -31.5t-31.5 -13.5q-19 0 -32 13.5t-13 31.5t13 31.5t32 13.5z" />
    <glyph glyph-name="ring" unicode="&#x2da;" 
d="M139 705q37 0 63.5 -26.5t26.5 -63.5t-26.5 -63.5t-63.5 -26.5t-63.5 26.5t-26.5 63.5t26.5 63.5t63.5 26.5zM139 675q-25 0 -42.5 -18t-17.5 -42t17.5 -42t42.5 -18t42.5 18t17.5 42t-17.5 42t-42.5 18z" />
    <glyph glyph-name="ogonek" unicode="&#x2db;" 
d="M165 -154l7 -14q-53 -46 -110 -46q-30 0 -48 18.5t-18 51.5q0 73 135 144h17q-86 -71 -86 -134q0 -21 14 -32.5t35 -11.5q28 0 54 24z" />
    <glyph glyph-name="tilde" unicode="&#x2dc;" 
d="M276 642h26q-13 -44 -39.5 -73t-68.5 -29q-32 0 -74 24q-43 24 -63 24q-40 0 -55 -48h-26q13 44 39.5 73t68.5 29q32 0 74 -24q43 -24 63 -24q40 0 55 48z" />
    <glyph glyph-name="hungarumlaut" unicode="&#x2dd;" 
d="M-40 516l145 144q25 25 43 25q11 0 21.5 -10t10.5 -24q0 -10 -5.5 -17.5t-11.5 -12t-23 -15.5l-145 -90h-35zM160 516l145 144q25 25 43 25q11 0 21.5 -10t10.5 -24q0 -10 -5.5 -17.5t-11.5 -12t-23 -15.5l-145 -90h-35z" />
    <glyph glyph-name="uni03A9" unicode="&#x3a9;" horiz-adv-x="727" 
d="M693 142l-25 -142h-235l-6 19q6 11 29.5 54t36.5 70.5t30.5 70t25.5 85t8 84.5q-1 151 -57 222t-138 71q-86 0 -139 -71.5t-53 -226.5q0 -41 9.5 -85.5t18.5 -72.5t33.5 -77t31 -61.5t35.5 -62.5l-8 -19h-233l-23 142l24 2q15 -48 30.5 -62.5t46.5 -14.5h105
q-32 28 -54.5 52.5t-52 65t-45.5 92t-16 108.5q0 145 83.5 233t209.5 88q128 0 208.5 -84t80.5 -228q0 -52 -15.5 -100.5t-44 -91.5t-53 -71.5t-59.5 -63.5h110q32 0 45.5 13t29.5 64z" />
    <glyph glyph-name="uni03BC" unicode="&#x3bc;" horiz-adv-x="556" 
d="M459 432v-416h80v-16h-164v91h-2q-5 -12 -14 -26.5t-25.5 -33t-43 -31t-57.5 -12.5q-37 0 -68 23q0 -37 7 -117t7 -115q0 -49 -45 -49t-45 49q0 23 4 86t4 119v410h-80v16h80q62 0 84 22v-358q0 -32 16.5 -51t45.5 -19q51 0 91.5 48t40.5 105v237h-79v16h79q62 0 84 22z
" />
    <glyph glyph-name="pi" unicode="&#x3c0;" horiz-adv-x="564" 
d="M512 477l24 -9q-11 -54 -36 -88q-16 -4 -68 -4q-5 -52 -5 -238q0 -93 44 -93q23 0 51 31l13 -20q-38 -68 -103 -68q-42 0 -65 28.5t-23 100.5q0 113 11 261q-118 2 -158 2v-19q0 -105 -14.5 -189.5t-27.5 -118.5t-24 -48q-38 -16 -59 -17l-7 17q50 63 72 170t22 206
q-32 0 -56.5 -6.5t-37 -14.5t-35.5 -25l-14 22q1 2 8.5 11t10.5 12t11 12t12.5 12.5t14 11t17 10.5t19 8t22.5 7.5t25 4t29 1.5q34 0 124.5 -1.5t142.5 -1.5q24 0 36 6t24 27z" />
    <glyph glyph-name="endash" unicode="&#x2013;" horiz-adv-x="500" 
d="M0 214v54h500v-54h-500z" />
    <glyph glyph-name="emdash" unicode="&#x2014;" horiz-adv-x="1000" 
d="M0 214v54h1000v-54h-1000z" />
    <glyph glyph-name="quoteleft" unicode="&#x2018;" 
d="M159 720l11 -11q-46 -40 -68 -78t-22 -93q0 -80 62 -89l2 2q-20 13 -20 41q0 38 45 38q20 0 32.5 -12.5t12.5 -32.5q0 -23 -16 -37.5t-42 -14.5q-46 0 -69 31t-23 77q0 98 95 179z" />
    <glyph glyph-name="quoteright" unicode="&#x2019;" 
d="M119 433l-11 11q46 40 68 78t22 93q0 80 -62 89l-2 -2q20 -13 20 -41q0 -38 -45 -38q-20 0 -32.5 12.5t-12.5 32.5q0 23 16 37.5t42 14.5q46 0 69 -31t23 -77q0 -98 -95 -179z" />
    <glyph glyph-name="quotesinglbase" unicode="&#x201a;" 
d="M119 -197l-11 11q46 40 68 78t22 93q0 80 -62 89l-2 -2q20 -13 20 -41q0 -38 -45 -38q-20 0 -32.5 12.5t-12.5 32.5q0 23 16 37.5t42 14.5q46 0 69 -31t23 -77q0 -98 -95 -179z" />
    <glyph glyph-name="quotedblleft" unicode="&#x201c;" horiz-adv-x="500" 
d="M173 720l11 -11q-46 -40 -68 -78t-22 -93q0 -80 62 -89l2 2q-20 13 -20 41q0 38 45 38q20 0 32.5 -12.5t12.5 -32.5q0 -23 -16 -37.5t-42 -14.5q-46 0 -69 31t-23 77q0 98 95 179zM367 720l11 -11q-46 -40 -68 -78t-22 -93q0 -80 62 -89l2 2q-20 13 -20 41q0 38 45 38
q20 0 32.5 -12.5t12.5 -32.5q0 -23 -16 -37.5t-42 -14.5q-46 0 -69 31t-23 77q0 98 95 179z" />
    <glyph glyph-name="quotedblright" unicode="&#x201d;" horiz-adv-x="500" 
d="M327 433l-11 11q46 40 68 78t22 93q0 80 -62 89l-2 -2q20 -13 20 -41q0 -38 -45 -38q-20 0 -32.5 12.5t-12.5 32.5q0 23 16 37.5t42 14.5q46 0 69 -31t23 -77q0 -98 -95 -179zM133 433l-11 11q46 40 68 78t22 93q0 80 -62 89l-2 -2q20 -13 20 -41q0 -38 -45 -38
q-20 0 -32.5 12.5t-12.5 32.5q0 23 16 37.5t42 14.5q46 0 69 -31t23 -77q0 -98 -95 -179z" />
    <glyph glyph-name="quotedblbase" unicode="&#x201e;" horiz-adv-x="500" 
d="M327 -197l-11 11q46 40 68 78t22 93q0 80 -62 89l-2 -2q20 -13 20 -41q0 -38 -45 -38q-20 0 -32.5 12.5t-12.5 32.5q0 23 16 37.5t42 14.5q46 0 69 -31t23 -77q0 -98 -95 -179zM133 -197l-11 11q46 40 68 78t22 93q0 80 -62 89l-2 -2q20 -13 20 -41q0 -38 -45 -38
q-20 0 -32.5 12.5t-12.5 32.5q0 23 16 37.5t42 14.5q46 0 69 -31t23 -77q0 -98 -95 -179z" />
    <glyph glyph-name="dagger" unicode="&#x2020;" horiz-adv-x="556" 
d="M23 386q0 4 4.5 7t12 5t14.5 3.5t16 3t13 2.5q-5 27 -5 29q0 10 9 10q6 0 15.5 -8t22.5 -18t51 -18t94 -8q0 61 -9 108.5t-19 68.5t-19 36.5t-9 20.5q0 7 7 7q9 0 31 -10q2 22 9 53.5t17 31.5t17 -31.5t9 -53.5q22 10 31 10q7 0 7 -7q0 -5 -9 -20.5t-19 -36.5t-19 -68.5
t-9 -108.5q56 0 94 8t51 18t22.5 18t15.5 8q9 0 9 -10q0 -2 -5 -29q4 -1 13 -2.5t16 -3t14.5 -3.5t12 -5t4.5 -7t-4.5 -7t-12 -5t-14.5 -3.5t-16 -3t-13 -2.5q5 -27 5 -29q0 -10 -9 -10q-6 0 -15.5 8t-22.5 18t-51 18t-94 8q0 -98 7 -187t16.5 -147t19 -100.5t16.5 -65.5
l7 -22q0 -12 -10 -12q-11 0 -34 16q-8 -61 -14.5 -81.5t-15.5 -20.5t-15.5 20.5t-14.5 81.5q-23 -16 -34 -16q-10 0 -10 12l7 22q7 23 16.5 65.5t19 100.5t16.5 147t7 187q-56 0 -94 -8t-51 -18t-22.5 -18t-15.5 -8q-9 0 -9 10q0 2 5 29q-4 1 -13 2.5t-16 3t-14.5 3.5t-12 5
t-4.5 7z" />
    <glyph glyph-name="daggerdbl" unicode="&#x2021;" horiz-adv-x="556" 
d="M278 710q14 0 27 -85q20 10 30 10q7 0 7 -7q0 -2 -13.5 -26t-27.5 -71t-15 -104q57 0 96 8.5t52.5 19t23 19t13.5 8.5q11 0 11 -13q0 -14 -10 -27q61 -12 61 -23t-61 -23q10 -13 10 -27q0 -13 -11 -13q-4 0 -13.5 8.5t-23 19t-52.5 19t-96 8.5q1 -104 38 -177
q-37 -73 -38 -177q57 0 96 8.5t52.5 19t23 19t13.5 8.5q11 0 11 -13q0 -14 -10 -27q61 -12 61 -23t-61 -23q10 -13 10 -27q0 -13 -11 -13q-4 0 -13.5 8.5t-23 19t-52.5 19t-96 8.5q1 -57 15 -104t27.5 -71t13.5 -26q0 -7 -7 -7q-10 0 -30 10q-13 -85 -27 -85t-27 85
q-20 -10 -30 -10q-7 0 -7 7q0 2 13.5 26t27.5 71t15 104q-57 0 -96 -8.5t-52.5 -19t-23 -19t-13.5 -8.5q-11 0 -11 13q0 14 10 27q-61 12 -61 23t61 23q-10 13 -10 27q0 13 11 13q4 0 13.5 -8.5t23 -19t52.5 -19t96 -8.5q-1 104 -38 177q37 73 38 177q-57 0 -96 -8.5
t-52.5 -19t-23 -19t-13.5 -8.5q-11 0 -11 13q0 14 10 27q-61 12 -61 23t61 23q-10 13 -10 27q0 13 11 13q4 0 13.5 -8.5t23 -19t52.5 -19t96 -8.5q-1 57 -15 104t-27.5 71t-13.5 26q0 7 7 7q10 0 30 -10q13 85 27 85z" />
    <glyph glyph-name="bullet" unicode="&#x2022;" horiz-adv-x="500" 
d="M74 352q0 73 51.5 124.5t124.5 51.5t124.5 -51.5t51.5 -124.5t-51.5 -124.5t-124.5 -51.5t-124.5 51.5t-51.5 124.5z" />
    <glyph glyph-name="ellipsis" unicode="&#x2026;" horiz-adv-x="1000" 
d="M167 90q20 0 35.5 -15t15.5 -36t-15 -36t-36 -15t-36 15t-15 36t15.5 36t35.5 15zM500 90q20 0 35.5 -15t15.5 -36t-15 -36t-36 -15t-36 15t-15 36t15.5 36t35.5 15zM833 90q20 0 35.5 -15t15.5 -36t-15 -36t-36 -15t-36 15t-15 36t15.5 36t35.5 15z" />
    <glyph glyph-name="perthousand" unicode="&#x2030;" horiz-adv-x="1000" 
d="M694 166q0 73 32 125.5t95 52.5t95 -52.5t32 -125.5t-32 -125.5t-95 -52.5t-95 52.5t-32 125.5zM760 166q0 -33 0.5 -48.5t2 -38.5t5 -33.5t10.5 -22t17.5 -15.5t25.5 -4t25.5 4t17.5 15.5t10.5 22t5 33.5t2 38.5t0.5 48.5t-0.5 48.5t-2 38.5t-5 33.5t-10.5 22
t-17.5 15.5t-25.5 4t-25.5 -4t-17.5 -15.5t-10.5 -22t-5 -33.5t-2 -38.5t-0.5 -48.5zM52 532q0 73 32 125.5t95 52.5t95 -52.5t32 -125.5t-32 -125.5t-95 -52.5t-95 52.5t-32 125.5zM118 532q0 -33 0.5 -48.5t2 -38.5t5 -33.5t10.5 -22t17.5 -15.5t25.5 -4t25.5 4t17.5 15.5
t10.5 22t5 33.5t2 38.5t0.5 48.5t-0.5 48.5t-2 38.5t-5 33.5t-10.5 22t-17.5 15.5t-25.5 4t-25.5 -4t-17.5 -15.5t-10.5 -22t-5 -33.5t-2 -38.5t-0.5 -48.5zM380 166q0 73 32 125.5t95 52.5t95 -52.5t32 -125.5t-32 -125.5t-95 -52.5t-95 52.5t-32 125.5zM446 166
q0 -33 0.5 -48.5t2 -38.5t5 -33.5t10.5 -22t17.5 -15.5t25.5 -4t25.5 4t17.5 15.5t10.5 22t5 33.5t2 38.5t0.5 48.5t-0.5 48.5t-2 38.5t-5 33.5t-10.5 22t-17.5 15.5t-25.5 4t-25.5 -4t-17.5 -15.5t-10.5 -22t-5 -33.5t-2 -38.5t-0.5 -48.5zM130 -22l376 742h43l-376 -742
h-43z" />
    <glyph glyph-name="guilsinglleft" unicode="&#x2039;" 
d="M52 241l145 164l29 -25l-122 -139l122 -139l-29 -25z" />
    <glyph glyph-name="guilsinglright" unicode="&#x203a;" 
d="M226 241l-145 -164l-29 25l122 139l-122 139l29 25z" />
    <glyph glyph-name="fraction" unicode="&#x2044;" horiz-adv-x="168" 
d="M-170 -22l463 742h45l-463 -742h-45z" />
    <glyph glyph-name="Euro" unicode="&#x20ac;" horiz-adv-x="556" 
d="M512 570h-21q-7 49 -42 74t-90 25q-85 0 -125.5 -63t-51.5 -187h276l-15 -37h-262q-1 -10 -1 -32v-34h236l-16 -37h-218q8 -121 53 -186t124 -65q51 0 87.5 24.5t44.5 76.5h21l-6 -80q-48 -60 -166 -60q-228 0 -251 290h-69l15 37h50q-1 9 -1 35q0 22 1 31h-65l15 37h53
q14 146 72 218.5t180 72.5q119 0 166 -58z" />
    <glyph glyph-name="afii61289" unicode="&#x2113;" horiz-adv-x="408" 
d="M372 118l19 -17q-59 -111 -164 -111q-68 0 -101 39q-34 43 -34 147v84l-60 -46l-12 24l72 58v130q0 125 10 178.5t42 91.5q37 47 86 47q43 0 66.5 -38t23.5 -95q0 -84 -38.5 -155t-108.5 -143v-95q0 -96 22 -134t67 -38q61 0 110 73zM173 486v-129q43 52 69.5 119.5
t26.5 132.5q0 46 -12.5 75t-34.5 29q-28 0 -38.5 -50.5t-10.5 -176.5z" />
    <glyph glyph-name="trademark" unicode="&#x2122;" horiz-adv-x="990" 
d="M237 688v-313q0 -36 5.5 -47.5t24.5 -11.5h20v-16h-166v16h26q15 0 19.5 11.5t4.5 47.5v313h-49q-30 0 -50.5 -21.5t-20.5 -50.5h-16v88h338v-88h-16q0 29 -20.5 50.5t-50.5 21.5h-49zM666 300l-154 308h-2v-225q0 -35 8 -51t32 -16h14v-16h-130v16h16q23 0 29.5 16
t6.5 51v252q0 19 -18 36t-37 17h-13v16h115l157 -315l164 315h101v-16h-22q-35 0 -35 -60v-253q0 -36 5 -47.5t21 -11.5h24v-16h-166v16h24q16 0 21 11.5t5 47.5v233h-2l-155 -308h-9z" />
    <glyph glyph-name="Omega" unicode="&#x2126;" horiz-adv-x="727" 
d="M693 142l-25 -142h-235l-6 19q6 11 29.5 54t36.5 70.5t30.5 70t25.5 85t8 84.5q-1 151 -57 222t-138 71q-86 0 -139 -71.5t-53 -226.5q0 -41 9.5 -85.5t18.5 -72.5t33.5 -77t31 -61.5t35.5 -62.5l-8 -19h-233l-23 142l24 2q15 -48 30.5 -62.5t46.5 -14.5h105
q-32 28 -54.5 52.5t-52 65t-45.5 92t-16 108.5q0 145 83.5 233t209.5 88q128 0 208.5 -84t80.5 -228q0 -52 -15.5 -100.5t-44 -91.5t-53 -71.5t-59.5 -63.5h110q32 0 45.5 13t29.5 64z" />
    <glyph glyph-name="estimated" unicode="&#x212e;" horiz-adv-x="869" 
d="M835 338h-649q-5 0 -5 -4v-196q0 -12 8 -23q103 -106 246 -106q75 0 142 32t116 87h57q-54 -64 -137.5 -101.5t-178.5 -37.5q-166 0 -283 105t-117 254t117 254.5t283 105.5t283.5 -105.5t117.5 -254.5v-10zM687 364v197q0 13 -9 24q-104 102 -243 102q-142 0 -245 -105
q-9 -10 -9 -25v-193q0 -6 5 -6h497q4 0 4 6z" />
    <glyph glyph-name="partialdiff" unicode="&#x2202;" horiz-adv-x="529" 
d="M262 435h1q38 0 75 -18t60 -53q8 65 9 108q2 88 -27 160q-17 39 -52.5 68.5t-79.5 29.5q-69 0 -137 -57q-12 -2 -24.5 21.5t-5.5 39.5q64 42 141 42q131 0 205 -143q50 -96 50 -234q0 -150 -48 -254q-71 -155 -203 -155q-83 0 -133 54.5t-50 148.5q0 97 59 167
q28 33 71 54t89 21zM283 396h-1q-67 0 -109 -59q-45 -70 -45 -187q-1 -55 25.5 -92t71.5 -37q69 0 116 106q33 73 50 195q-12 26 -42 50t-66 24z" />
    <glyph glyph-name="Delta" unicode="&#x2206;" horiz-adv-x="632" 
d="M597 0h-562v24l258 671l38 11l266 -682v-24zM492 46l-204 533l-200 -533h404z" />
    <glyph glyph-name="product" unicode="&#x220f;" horiz-adv-x="683" 
d="M654 698v-26q-64 -5 -77 -16t-13 -54v-584q0 -49 13.5 -62t74.5 -17v-26h-256v26q59 4 71.5 15.5t12.5 63.5v614q0 21 -6.5 27t-29.5 6h-208q-22 0 -28 -5t-6 -24v-618q0 -50 10.5 -62t65.5 -17v-26h-248v26q60 5 74 17t14 62v584q0 44 -13.5 54.5t-77.5 15.5v26h627z
" />
    <glyph glyph-name="summation" unicode="&#x2211;" horiz-adv-x="552" 
d="M528 97l-43 -187h-457v23l225 350l-219 391v24h451q0 -6 5 -65.5t7 -96.5l-26 -5q-13 70 -33 102q-10 19 -30 25.5t-74 6.5h-194l187 -326l-224 -355h259q66 0 87.5 17.5t51.5 102.5z" />
    <glyph glyph-name="minus" unicode="&#x2212;" horiz-adv-x="600" 
d="M553 223h-506v60h506v-60z" />
    <glyph glyph-name="uni2215" unicode="&#x2215;" horiz-adv-x="168" 
d="M-170 -22l463 742h45l-463 -742h-45z" />
    <glyph glyph-name="uni2219" unicode="&#x2219;" 
d="M139 260q-21 0 -36 15t-15 36t15 36t36 15q20 0 35.5 -15t15.5 -36t-15.5 -36t-35.5 -15z" />
    <glyph glyph-name="radical" unicode="&#x221a;" horiz-adv-x="549" 
d="M532 893l-166 -1041l-20 -11l-217 554l-87 -42l-11 32l154 73l169 -445h2l137 890z" />
    <glyph glyph-name="infinity" unicode="&#x221e;" horiz-adv-x="754" 
d="M705 289v-1q0 -71 -44.5 -115t-105.5 -44q-44 0 -85 26.5t-92 87.5q-47 -55 -88 -84.5t-94 -29.5q-61 0 -104.5 44.5t-43.5 110.5q0 69 44 113.5t111 44.5q50 0 91.5 -29.5t86.5 -83.5q3 3 9 10q30 33 48 50.5t52 35t71 17.5q63 0 103.5 -42.5t40.5 -110.5zM202 182h2
q10 0 19 1.5t18.5 6.5t17 8t17.5 11.5t15 12.5t15.5 15t14 14.5t14.5 16t13 14.5q-24 30 -33.5 41t-30.5 31.5t-41.5 28.5t-44.5 8q-44 0 -69.5 -31t-25.5 -77q0 -43 28 -72t71 -29zM555 391h-1q-18 0 -35.5 -6.5t-34.5 -20.5t-27 -24.5t-27 -29.5t-21 -23q51 -59 81.5 -82
t66.5 -23q42 0 67.5 31.5t25.5 70.5q0 49 -26.5 78t-68.5 29z" />
    <glyph glyph-name="integral" unicode="&#x222b;" horiz-adv-x="373" 
d="M161 15l-20 414q-19 420 152 420q21 0 40 -12.5t20 -33.5q0 -20 -12.5 -31t-30.5 -11q-14 0 -22.5 11.5t-15 22.5t-15.5 11q-49 0 -42 -169l18 -386q22 -449 -152 -449q-26 0 -43 14t-17 33q-1 20 14 33t36 13q14 0 26.5 -24t22.5 -24q23 0 34 45.5t7 122.5z" />
    <glyph glyph-name="approxequal" unicode="&#x2248;" horiz-adv-x="540" 
d="M461 432l36 -31q-48 -95 -128 -95q-42 0 -111 40q-55 32 -87 32q-30 0 -51 -18.5t-43 -52.5l-37 30q22 44 58 69.5t79 25.5q10 0 19 -1t18 -4t15.5 -5t15.5 -7t13.5 -7t13.5 -7.5t11 -6.5q4 -2 13.5 -7.5t13.5 -7.5t11.5 -6t12 -5.5t11.5 -4t13 -3t13 -0.5q48 0 90 72z
M461 263l36 -32q-50 -95 -128 -95q-41 0 -111 40q-53 33 -87 33q-30 0 -51.5 -19t-42.5 -53l-37 30q22 44 58.5 70t78.5 26q14 0 26.5 -2.5t24.5 -7.5t19.5 -8.5t19.5 -10.5t16 -9t14.5 -8.5t15 -9t13 -6.5t14.5 -6t14.5 -3.5t16.5 -1.5q27 0 47 17.5t43 55.5z" />
    <glyph glyph-name="notequal" unicode="&#x2260;" horiz-adv-x="540" 
d="M387 498l-41 -91h144v-56h-166l-62 -138h228v-55h-250l-51 -112l-43 19l42 93h-140v55h162l62 138h-224v56h245l50 110z" />
    <glyph glyph-name="lessequal" unicode="&#x2264;" horiz-adv-x="540" 
d="M488 101l-434 219v59l434 218v-65l-376 -181v-2l376 -183v-65zM491 5h-442v57h442v-57z" />
    <glyph glyph-name="greaterequal" unicode="&#x2265;" horiz-adv-x="540" 
d="M55 597l434 -219v-58l-434 -219v65l376 182v2l-376 182v65zM490 5h-440v57h440v-57z" />
    <glyph glyph-name="lozenge" unicode="&#x25ca;" horiz-adv-x="557" 
d="M508 336l-197 -406h-66l-196 406l198 409h64zM445 336l-164 348h-4l-165 -346l166 -348h2z" />
    <glyph glyph-name="A.sc" unicode="&#xe000;" horiz-adv-x="463" 
d="M235 452l171 -436h55v-16h-208v16h57l-50 129h-136l-37 -91q-6 -16 -6 -23q0 -15 30 -15h28v-16h-137v16h22q32 0 50 45l156 391h5zM193 324l-64 -163h125z" />
    <glyph glyph-name="AE.sc" unicode="&#xe001;" horiz-adv-x="648" 
d="M281 175v245h-2l-142 -245h144zM53 65l216 363h-84v16h385l12 -113h-16q-4 53 -28 75t-78 22h-95v-193h37q48 0 60 13.5t14 64.5h16v-172h-16q-2 51 -14 64.5t-60 13.5h-37v-203h113q112 0 112 118h16v-134h-405v16h80v143h-154l-61 -105q-10 -20 -10 -26q0 -12 42 -12
h22v-16h-162v16h15q24 0 40 7.5t22.5 15.5t17.5 26z" />
    <glyph glyph-name="Aacute.sc" unicode="&#xe002;" horiz-adv-x="463" 
d="M235 452l171 -436h55v-16h-208v16h57l-50 129h-136l-37 -91q-6 -16 -6 -23q0 -15 30 -15h28v-16h-137v16h22q32 0 50 45l156 391h5zM193 324l-64 -163h125zM153 486l145 144q25 25 43 25q11 0 21.5 -10t10.5 -24q0 -10 -5.5 -17.5t-11.5 -12t-23 -15.5l-145 -90h-35z" />
    <glyph glyph-name="Acircumflex.sc" unicode="&#xe003;" horiz-adv-x="463" 
d="M235 452l171 -436h55v-16h-208v16h57l-50 129h-136l-37 -91q-6 -16 -6 -23q0 -15 30 -15h28v-16h-137v16h22q32 0 50 45l156 391h5zM193 324l-64 -163h125zM82 486l122 169h56l122 -169h-33l-117 106l-117 -106h-33z" />
    <glyph glyph-name="Adieresis.sc" unicode="&#xe004;" horiz-adv-x="463" 
d="M235 452l171 -436h55v-16h-208v16h57l-50 129h-136l-37 -91q-6 -16 -6 -23q0 -15 30 -15h28v-16h-137v16h22q32 0 50 45l156 391h5zM193 324l-64 -163h125zM326 596q18 0 31.5 -13.5t13.5 -31.5t-13.5 -31.5t-31.5 -13.5q-19 0 -32 13.5t-13 31.5t13 31.5t32 13.5z
M138 596q18 0 31.5 -13.5t13.5 -31.5t-13.5 -31.5t-31.5 -13.5q-19 0 -32 13.5t-13 31.5t13 31.5t32 13.5z" />
    <glyph glyph-name="Agrave.sc" unicode="&#xe005;" horiz-adv-x="463" 
d="M235 452l171 -436h55v-16h-208v16h57l-50 129h-136l-37 -91q-6 -16 -6 -23q0 -15 30 -15h28v-16h-137v16h22q32 0 50 45l156 391h5zM193 324l-64 -163h125zM276 486l-145 90q-17 11 -23 15.5t-11.5 12t-5.5 17.5q0 14 10.5 24t21.5 10q18 0 43 -25l145 -144h-35z" />
    <glyph glyph-name="Aring.sc" unicode="&#xe006;" horiz-adv-x="463" 
d="M235 452l171 -436h55v-16h-208v16h57l-50 129h-136l-37 -91q-6 -16 -6 -23q0 -15 30 -15h28v-16h-137v16h22q32 0 50 45l156 391h5zM193 324l-64 -163h125zM232 655q37 0 63.5 -26.5t26.5 -63.5t-26.5 -63.5t-63.5 -26.5t-63.5 26.5t-26.5 63.5t26.5 63.5t63.5 26.5z
M232 625q-25 0 -42.5 -18t-17.5 -42t17.5 -42t42.5 -18t42.5 18t17.5 42t-17.5 42t-42.5 18z" />
    <glyph glyph-name="Atilde.sc" unicode="&#xe007;" horiz-adv-x="463" 
d="M235 452l171 -436h55v-16h-208v16h57l-50 129h-136l-37 -91q-6 -16 -6 -23q0 -15 30 -15h28v-16h-137v16h22q32 0 50 45l156 391h5zM193 324l-64 -163h125zM369 612h26q-13 -44 -39.5 -73t-68.5 -29q-32 0 -74 24q-43 24 -63 24q-40 0 -55 -48h-26q13 44 39.5 73t68.5 29
q32 0 74 -24q43 -24 63 -24q40 0 55 48z" />
    <glyph glyph-name="B.sc" unicode="&#xe008;" horiz-adv-x="463" 
d="M180 428v-184h37q44 0 68.5 19.5t24.5 68.5q0 13 -0.5 22t-6 24.5t-14.5 25t-28.5 17t-46.5 7.5h-34zM96 16v412h-72v16h204q34 0 58 -3t51.5 -12t42 -31t14.5 -55q0 -32 -18 -55t-44.5 -33t-47 -14t-35.5 -4v-2q64 -5 111 -32t47 -85q0 -118 -180 -118h-203v16h72z
M180 228v-212h37q14 0 24 1t25.5 7t25.5 17t17.5 33t7.5 53q0 34 -10 56.5t-28.5 31t-30.5 10.5t-30 3h-38z" />
    <glyph glyph-name="C.sc" unicode="&#xe009;" horiz-adv-x="463" 
d="M409 432v-134h-9q-10 60 -46 100t-96 38q-122 0 -122 -214t120 -214q61 0 99.5 44.5t43.5 111.5h10v-156h-10q-5 28 -16 31q-2 1 -5 1q-5 0 -20.5 -12t-41.5 -24t-56 -12q-96 0 -158 68t-62 162q0 92 60 161t160 69q28 0 54.5 -11.5t42.5 -23t21 -11.5q16 0 21 26h10z
" />
    <glyph glyph-name="Ccedilla.sc" unicode="&#xe00a;" horiz-adv-x="463" 
d="M409 432v-134h-9q-10 60 -46 100t-96 38q-122 0 -122 -214t120 -214q61 0 99.5 44.5t43.5 111.5h10v-156h-10q-5 28 -16 31q-2 1 -5 1q-5 0 -20 -11.5t-40.5 -23.5t-53.5 -13l-46 -76l2 -2q22 10 61 10q29 0 54 -17t25 -45q0 -41 -35.5 -59.5t-80.5 -18.5q-43 0 -105 22
l8 13q31 -11 69 -11q66 -3 66 52q0 16 -10 28t-28 12q-20 0 -41 -6l-17 7l54 91q-89 8 -144.5 74.5t-55.5 155.5q0 92 60 161t160 69q28 0 54.5 -11.5t42.5 -23t21 -11.5q16 0 21 26h10z" />
    <glyph glyph-name="D.sc" unicode="&#xe00b;" horiz-adv-x="519" 
d="M96 16v412h-72v16h226q46 0 83.5 -12t61 -29.5t40 -42t24.5 -44.5t12.5 -43.5t5 -32.5t0.5 -18q0 -38 -10.5 -73.5t-35 -70.5t-74 -56.5t-118.5 -21.5h-215v16h72zM180 428v-412q29 0 44 0.5t40 4.5t38.5 11.5t31 23t26 37.5t15 56.5t6.5 78.5q0 57 -14 97t-32 59.5
t-50 30t-51.5 12t-53.5 1.5z" />
    <glyph glyph-name="E.sc" unicode="&#xe00c;" horiz-adv-x="463" 
d="M96 16v412h-72v16h361l12 -113h-16q-4 53 -28 75t-78 22h-95v-193h37q48 0 60 13.5t14 64.5h16v-172h-16q-2 51 -14 64.5t-60 13.5h-37v-203h113q112 0 112 118h16v-134h-397v16h72z" />
    <glyph glyph-name="Eacute.sc" unicode="&#xe00d;" horiz-adv-x="463" 
d="M96 16v412h-72v16h361l12 -113h-16q-4 53 -28 75t-78 22h-95v-193h37q48 0 60 13.5t14 64.5h16v-172h-16q-2 51 -14 64.5t-60 13.5h-37v-203h113q112 0 112 118h16v-134h-397v16h72zM153 486l145 144q25 25 43 25q11 0 21.5 -10t10.5 -24q0 -10 -5.5 -17.5t-11.5 -12
t-23 -15.5l-145 -90h-35z" />
    <glyph glyph-name="Ecircumflex.sc" unicode="&#xe00e;" horiz-adv-x="463" 
d="M96 16v412h-72v16h361l12 -113h-16q-4 53 -28 75t-78 22h-95v-193h37q48 0 60 13.5t14 64.5h16v-172h-16q-2 51 -14 64.5t-60 13.5h-37v-203h113q112 0 112 118h16v-134h-397v16h72zM82 486l122 169h56l122 -169h-33l-117 106l-117 -106h-33z" />
    <glyph glyph-name="Edieresis.sc" unicode="&#xe00f;" horiz-adv-x="463" 
d="M96 16v412h-72v16h361l12 -113h-16q-4 53 -28 75t-78 22h-95v-193h37q48 0 60 13.5t14 64.5h16v-172h-16q-2 51 -14 64.5t-60 13.5h-37v-203h113q112 0 112 118h16v-134h-397v16h72zM326 596q18 0 31.5 -13.5t13.5 -31.5t-13.5 -31.5t-31.5 -13.5q-19 0 -32 13.5
t-13 31.5t13 31.5t32 13.5zM138 596q18 0 31.5 -13.5t13.5 -31.5t-13.5 -31.5t-31.5 -13.5q-19 0 -32 13.5t-13 31.5t13 31.5t32 13.5z" />
    <glyph glyph-name="Egrave.sc" unicode="&#xe010;" horiz-adv-x="463" 
d="M96 16v412h-72v16h361l12 -113h-16q-4 53 -28 75t-78 22h-95v-193h37q48 0 60 13.5t14 64.5h16v-172h-16q-2 51 -14 64.5t-60 13.5h-37v-203h113q112 0 112 118h16v-134h-397v16h72zM276 486l-145 90q-17 11 -23 15.5t-11.5 12t-5.5 17.5q0 14 10.5 24t21.5 10
q18 0 43 -25l145 -144h-35z" />
    <glyph glyph-name="Eth.sc" unicode="&#xe011;" horiz-adv-x="519" 
d="M96 16v213h-62v16h62v183h-72v16h226q46 0 83.5 -12t61 -29.5t40 -42t24.5 -44.5t12.5 -43.5t5 -32.5t0.5 -18q0 -38 -10.5 -73.5t-35 -70.5t-74 -56.5t-118.5 -21.5h-215v16h72zM180 428v-183h97v-16h-97v-213q29 0 44 0.5t40 4.5t38.5 11.5t31 23t26 37.5t15 56.5
t6.5 78.5q0 57 -14 97t-32 59.5t-50 30t-51.5 12t-53.5 1.5z" />
    <glyph glyph-name="F.sc" unicode="&#xe012;" horiz-adv-x="426" 
d="M96 16v412h-72v16h362l16 -119h-16q-6 60 -32.5 81.5t-88.5 21.5h-85v-193h37q48 0 60 13.5t14 64.5h16v-172h-16q-2 51 -14 64.5t-60 13.5h-37v-203h84v-16h-240v16h72z" />
    <glyph glyph-name="G.sc" unicode="&#xe013;" horiz-adv-x="519" 
d="M287 156h222v-16h-66v-82q-83 -66 -178 -66q-99 0 -162 61t-63 159q0 63 20.5 111.5t53.5 75.5t69 40t74 13q36 0 64.5 -12t45 -24.5t23.5 -12.5q20 0 20 41h16v-143h-16q-7 38 -25.5 65.5t-41.5 39.5t-41.5 17t-34.5 5q-35 0 -60.5 -15.5t-39 -36.5t-21 -53.5t-9 -57
t-1.5 -55.5q0 -202 128 -202q10 0 22.5 2.5t30.5 9t30 22.5t12 39v59h-72v16z" />
    <glyph glyph-name="H.sc" unicode="&#xe014;" horiz-adv-x="574" 
d="M96 16v412h-72v16h230v-16h-74v-193h214v193h-74v16h230v-16h-72v-412h72v-16h-230v16h74v203h-214v-203h74v-16h-230v16h72z" />
    <glyph glyph-name="I.sc" unicode="&#xe015;" 
d="M97 16v412h-73v16h230v-16h-73v-412h73v-16h-230v16h73z" />
    <glyph glyph-name="Iacute.sc" unicode="&#xe016;" 
d="M97 16v412h-73v16h230v-16h-73v-412h73v-16h-230v16h73zM72 486l145 144q25 25 43 25q11 0 21.5 -10t10.5 -24q0 -10 -5.5 -17.5t-11.5 -12t-23 -15.5l-145 -90h-35z" />
    <glyph glyph-name="Icircumflex.sc" unicode="&#xe017;" 
d="M97 16v412h-73v16h230v-16h-73v-412h73v-16h-230v16h73zM-11 486l122 169h56l122 -169h-33l-117 106l-117 -106h-33z" />
    <glyph glyph-name="Idieresis.sc" unicode="&#xe018;" 
d="M97 16v412h-73v16h230v-16h-73v-412h73v-16h-230v16h73zM233 596q18 0 31.5 -13.5t13.5 -31.5t-13.5 -31.5t-31.5 -13.5q-19 0 -32 13.5t-13 31.5t13 31.5t32 13.5zM45 596q18 0 31.5 -13.5t13.5 -31.5t-13.5 -31.5t-31.5 -13.5q-19 0 -32 13.5t-13 31.5t13 31.5t32 13.5
z" />
    <glyph glyph-name="Igrave.sc" unicode="&#xe019;" 
d="M97 16v412h-73v16h230v-16h-73v-412h73v-16h-230v16h73zM183 486l-145 90q-17 11 -23 15.5t-11.5 12t-5.5 17.5q0 14 10.5 24t21.5 10q18 0 43 -25l145 -144h-35z" />
    <glyph glyph-name="J.sc" unicode="&#xe01a;" horiz-adv-x="296" 
d="M204 428v-333q0 -38 -8 -68.5t-34 -55t-68 -24.5q-37 0 -57.5 17.5t-20.5 44.5q0 22 11.5 31.5t25.5 9.5q35 0 35 -34q0 -19 -17 -27t-17 -16q0 -16 35 -16q50 0 50 50q0 12 -9.5 41t-9.5 54v326h-79v16h239v-16h-76z" />
    <glyph glyph-name="K.sc" unicode="&#xe01b;" horiz-adv-x="519" 
d="M96 16v412h-72v16h230v-16h-74v-194l174 162q2 2 7 6l7.5 6t4.5 5.5t2 7.5q0 7 -13 7h-58v16h174v-16h-51q-15 0 -33 -16l-143 -134l176 -246q12 -16 40 -16h38v-16h-236v16h64l-147 204l-6 -5v-199h67v-16h-223v16h72z" />
    <glyph glyph-name="L.sc" unicode="&#xe01c;" horiz-adv-x="444" 
d="M96 16v412h-80v16h246v-16h-82v-412h97q73 0 101 30t28 103h16v-149h-406v16h80z" />
    <glyph glyph-name="Lslash.sc" unicode="&#xe01d;" horiz-adv-x="444" 
d="M96 16v191l-77 -44v16l77 44v205h-80v16h246v-16h-82v-158l121 69v-16l-121 -69v-238h97q73 0 101 30t28 103h16v-149h-406v16h80z" />
    <glyph glyph-name="M.sc" unicode="&#xe01e;" horiz-adv-x="630" 
d="M96 57v371h-72v16h157l134 -314l131 314h160v-16h-72v-412h72v-16h-230v16h74v389h-2l-166 -396h-8l-160 387h-2v-339q0 -20 8.5 -30.5t33.5 -10.5h30v-16h-160v16h30q25 0 33.5 10.5t8.5 30.5z" />
    <glyph glyph-name="N.sc" unicode="&#xe01f;" horiz-adv-x="519" 
d="M90 428h-74v16h172l223 -303h2v246q0 20 -8.5 30.5t-33.5 10.5h-30v16h162v-16h-32q-25 0 -33.5 -10.5t-8.5 -30.5v-387h-12l-309 409h-2v-352q0 -20 8.5 -30.5t33.5 -10.5h34v-16h-166v16h32q25 0 33.5 10.5t8.5 30.5v371z" />
    <glyph glyph-name="Ntilde.sc" unicode="&#xe020;" horiz-adv-x="519" 
d="M90 428h-74v16h172l223 -303h2v246q0 20 -8.5 30.5t-33.5 10.5h-30v16h162v-16h-32q-25 0 -33.5 -10.5t-8.5 -30.5v-387h-12l-309 409h-2v-352q0 -20 8.5 -30.5t33.5 -10.5h34v-16h-166v16h32q25 0 33.5 10.5t8.5 30.5v371zM397 612h26q-13 -44 -39.5 -73t-68.5 -29
q-32 0 -74 24q-43 24 -63 24q-40 0 -55 -48h-26q13 44 39.5 73t68.5 29q32 0 74 -24q43 -24 63 -24q40 0 55 48z" />
    <glyph glyph-name="O.sc" unicode="&#xe021;" horiz-adv-x="519" 
d="M40 222q0 92 60 161t160 69t159.5 -69t59.5 -161q0 -94 -61.5 -162t-157.5 -68t-158 68t-62 162zM260 436q-124 0 -124 -214t124 -214q123 0 123 214t-123 214z" />
    <glyph glyph-name="OE.sc" unicode="&#xe022;" horiz-adv-x="704" 
d="M337 16v412q-48 8 -77 8q-124 0 -124 -214t124 -214q29 0 77 8zM421 428v-193h37q48 0 60 13.5t14 64.5h16v-172h-16q-2 51 -14 64.5t-60 13.5h-37v-203h113q112 0 112 118h16v-134h-299q-21 0 -53 -4t-50 -4q-96 0 -158 68t-62 162q0 92 60 161t160 69q18 0 50 -4t53 -4
h263l12 -113h-16q-4 53 -28 75t-78 22h-95z" />
    <glyph glyph-name="Oacute.sc" unicode="&#xe023;" horiz-adv-x="519" 
d="M40 222q0 92 60 161t160 69t159.5 -69t59.5 -161q0 -94 -61.5 -162t-157.5 -68t-158 68t-62 162zM260 436q-124 0 -124 -214t124 -214q123 0 123 214t-123 214zM181 486l145 144q25 25 43 25q11 0 21.5 -10t10.5 -24q0 -10 -5.5 -17.5t-11.5 -12t-23 -15.5l-145 -90h-35z
" />
    <glyph glyph-name="Ocircumflex.sc" unicode="&#xe024;" horiz-adv-x="519" 
d="M40 222q0 92 60 161t160 69t159.5 -69t59.5 -161q0 -94 -61.5 -162t-157.5 -68t-158 68t-62 162zM260 436q-124 0 -124 -214t124 -214q123 0 123 214t-123 214zM110 486l122 169h56l122 -169h-33l-117 106l-117 -106h-33z" />
    <glyph glyph-name="Odieresis.sc" unicode="&#xe025;" horiz-adv-x="519" 
d="M40 222q0 92 60 161t160 69t159.5 -69t59.5 -161q0 -94 -61.5 -162t-157.5 -68t-158 68t-62 162zM260 436q-124 0 -124 -214t124 -214q123 0 123 214t-123 214zM354 596q18 0 31.5 -13.5t13.5 -31.5t-13.5 -31.5t-31.5 -13.5q-19 0 -32 13.5t-13 31.5t13 31.5t32 13.5z
M166 596q18 0 31.5 -13.5t13.5 -31.5t-13.5 -31.5t-31.5 -13.5q-19 0 -32 13.5t-13 31.5t13 31.5t32 13.5z" />
    <glyph glyph-name="Ograve.sc" unicode="&#xe026;" horiz-adv-x="519" 
d="M40 222q0 92 60 161t160 69t159.5 -69t59.5 -161q0 -94 -61.5 -162t-157.5 -68t-158 68t-62 162zM260 436q-124 0 -124 -214t124 -214q123 0 123 214t-123 214zM304 486l-145 90q-17 11 -23 15.5t-11.5 12t-5.5 17.5q0 14 10.5 24t21.5 10q18 0 43 -25l145 -144h-35z" />
    <glyph glyph-name="Oslash.sc" unicode="&#xe027;" horiz-adv-x="519" 
d="M150 104l214 250q-27 82 -104 82q-124 0 -124 -214q0 -68 14 -118zM369 340l-213 -250q27 -82 104 -82q123 0 123 214q0 68 -14 118zM61 0l47 55q-68 65 -68 167q0 92 60 161t160 69q84 0 142 -53l45 53l11 -8l-46 -54q67 -69 67 -168q0 -94 -61.5 -162t-157.5 -68
q-83 0 -142 54l-46 -54z" />
    <glyph glyph-name="Otilde.sc" unicode="&#xe028;" horiz-adv-x="519" 
d="M40 222q0 92 60 161t160 69t159.5 -69t59.5 -161q0 -94 -61.5 -162t-157.5 -68t-158 68t-62 162zM260 436q-124 0 -124 -214t124 -214q123 0 123 214t-123 214zM397 612h26q-13 -44 -39.5 -73t-68.5 -29q-32 0 -74 24q-43 24 -63 24q-40 0 -55 -48h-26q13 44 39.5 73
t68.5 29q32 0 74 -24q43 -24 63 -24q40 0 55 48z" />
    <glyph glyph-name="P.sc" unicode="&#xe029;" horiz-adv-x="444" 
d="M96 16v412h-80v16h211q185 0 185 -126q0 -61 -49.5 -93.5t-113.5 -32.5q-29 0 -69 14v-190h83v-16h-247v16h80zM180 428v-206q38 -14 60 -14q82 0 82 110q0 54 -20.5 82t-80.5 28h-41z" />
    <glyph glyph-name="Q.sc" unicode="&#xe02a;" horiz-adv-x="519" 
d="M399 -114v-16h-67q-71 0 -91.5 20.5t-20.5 66.5v39q-81 15 -130.5 79t-49.5 147q0 92 60 161t160 69t159.5 -69t59.5 -161q0 -84 -50 -148.5t-131 -77.5v-45q0 -38 9.5 -51.5t45.5 -13.5h46zM260 436q-124 0 -124 -214t124 -214q123 0 123 214t-123 214z" />
    <glyph glyph-name="R.sc" unicode="&#xe02b;" horiz-adv-x="481" 
d="M96 16v412h-72v16h203q172 0 172 -106q0 -90 -141 -106v-2q43 -5 69.5 -15.5t39 -30.5t16.5 -35.5t7 -47.5q8 -73 17 -85q6 -8 18 -8q22 0 42 11l5 -12q-28 -15 -67 -15q-32 0 -53.5 9t-31.5 28t-14 35t-6 42q-6 64 -16 83q-18 30 -64 30h-40v-203h71v-16h-227v16h72z
M180 428v-193h37q9 0 18 1t24.5 6.5t27 15t20 29t8.5 46.5q0 49 -23 72t-71 23h-41z" />
    <glyph glyph-name="S.sc" unicode="&#xe02c;" horiz-adv-x="407" 
d="M56 0v163h16q7 -73 36.5 -114t99.5 -41q49 0 75 28t26 64q0 19 -5.5 32.5t-12 21t-26.5 15t-32 10.5t-46 11q-28 6 -46.5 13t-38 21.5t-29.5 39.5t-10 61q0 50 30.5 88.5t92.5 38.5q28 0 51.5 -9t37.5 -18t18 -9q11 0 11 28h16v-135h-16q-7 127 -120 127q-39 0 -62 -22
t-23 -61q0 -13 3 -23t11.5 -18t14 -13t21.5 -10t22 -7t27 -6.5t26 -5.5q60 -14 93.5 -42.5t33.5 -95.5q0 -62 -36 -101t-101 -39q-44 0 -85.5 16.5t-42.5 16.5q-14 0 -14 -13v-12h-16z" />
    <glyph glyph-name="Scaron.sc" unicode="&#xe02d;" horiz-adv-x="407" 
d="M56 0v163h16q7 -73 36.5 -114t99.5 -41q49 0 75 28t26 64q0 19 -5.5 32.5t-12 21t-26.5 15t-32 10.5t-46 11q-28 6 -46.5 13t-38 21.5t-29.5 39.5t-10 61q0 50 30.5 88.5t92.5 38.5q28 0 51.5 -9t37.5 -18t18 -9q11 0 11 28h16v-135h-16q-7 127 -120 127q-39 0 -62 -22
t-23 -61q0 -13 3 -23t11.5 -18t14 -13t21.5 -10t22 -7t27 -6.5t26 -5.5q60 -14 93.5 -42.5t33.5 -95.5q0 -62 -36 -101t-101 -39q-44 0 -85.5 16.5t-42.5 16.5q-14 0 -14 -13v-12h-16zM354 655l-122 -169h-56l-122 169h33l117 -106l117 106h33z" />
    <glyph glyph-name="T.sc" unicode="&#xe02e;" horiz-adv-x="464" 
d="M190 16v412h-50q-63 0 -82.5 -27t-19.5 -91h-16v134h420v-134h-16q0 64 -19.5 91t-82.5 27h-50v-412h84v-16h-252v16h84z" />
    <glyph glyph-name="Thorn.sc" unicode="&#xe02f;" horiz-adv-x="444" 
d="M96 16v412h-80v16h247v-16h-83v-64h78q67 0 110.5 -31t43.5 -95q0 -61 -49.5 -93.5t-113.5 -32.5q-29 0 -69 14v-110h83v-16h-247v16h80zM180 348v-206q38 -14 60 -14q82 0 82 110q0 54 -18.5 82t-69.5 28h-54z" />
    <glyph glyph-name="U.sc" unicode="&#xe030;" horiz-adv-x="519" 
d="M9 428v16h243v-16h-80v-290q0 -130 113 -130q56 0 92 29t36 89v261q0 20 -8.5 30.5t-33.5 10.5h-45v16h177v-16h-32q-25 0 -33.5 -10.5t-8.5 -30.5v-254q0 -141 -164 -141q-51 0 -86.5 10t-52.5 23t-26.5 35t-10.5 35t-1 36v297h-79z" />
    <glyph glyph-name="Uacute.sc" unicode="&#xe031;" horiz-adv-x="519" 
d="M9 428v16h243v-16h-80v-290q0 -130 113 -130q56 0 92 29t36 89v261q0 20 -8.5 30.5t-33.5 10.5h-45v16h177v-16h-32q-25 0 -33.5 -10.5t-8.5 -30.5v-254q0 -141 -164 -141q-51 0 -86.5 10t-52.5 23t-26.5 35t-10.5 35t-1 36v297h-79zM206 486l145 144q25 25 43 25
q11 0 21.5 -10t10.5 -24q0 -10 -5.5 -17.5t-11.5 -12t-23 -15.5l-145 -90h-35z" />
    <glyph glyph-name="Ucircumflex.sc" unicode="&#xe032;" horiz-adv-x="519" 
d="M9 428v16h243v-16h-80v-290q0 -130 113 -130q56 0 92 29t36 89v261q0 20 -8.5 30.5t-33.5 10.5h-45v16h177v-16h-32q-25 0 -33.5 -10.5t-8.5 -30.5v-254q0 -141 -164 -141q-51 0 -86.5 10t-52.5 23t-26.5 35t-10.5 35t-1 36v297h-79zM110 486l122 169h56l122 -169h-33
l-117 106l-117 -106h-33z" />
    <glyph glyph-name="Udieresis.sc" unicode="&#xe033;" horiz-adv-x="519" 
d="M9 428v16h243v-16h-80v-290q0 -130 113 -130q56 0 92 29t36 89v261q0 20 -8.5 30.5t-33.5 10.5h-45v16h177v-16h-32q-25 0 -33.5 -10.5t-8.5 -30.5v-254q0 -141 -164 -141q-51 0 -86.5 10t-52.5 23t-26.5 35t-10.5 35t-1 36v297h-79zM360 596q18 0 31.5 -13.5t13.5 -31.5
t-13.5 -31.5t-31.5 -13.5q-19 0 -32 13.5t-13 31.5t13 31.5t32 13.5zM172 596q18 0 31.5 -13.5t13.5 -31.5t-13.5 -31.5t-31.5 -13.5q-19 0 -32 13.5t-13 31.5t13 31.5t32 13.5z" />
    <glyph glyph-name="Ugrave.sc" unicode="&#xe034;" horiz-adv-x="519" 
d="M9 428v16h243v-16h-80v-290q0 -130 113 -130q56 0 92 29t36 89v261q0 20 -8.5 30.5t-33.5 10.5h-45v16h177v-16h-32q-25 0 -33.5 -10.5t-8.5 -30.5v-254q0 -141 -164 -141q-51 0 -86.5 10t-52.5 23t-26.5 35t-10.5 35t-1 36v297h-79zM304 486l-145 90q-17 11 -23 15.5
t-11.5 12t-5.5 17.5q0 14 10.5 24t21.5 10q18 0 43 -25l145 -144h-35z" />
    <glyph glyph-name="V.sc" unicode="&#xe035;" horiz-adv-x="481" 
d="M0 428v16h216v-16h-63l121 -312l113 277q5 11 5 23t-25 12h-30v16h144v-16h-31q-18 0 -28 -6.5t-19 -29.5l-164 -400h-6l-173 436h-60z" />
    <glyph glyph-name="W.sc" unicode="&#xe036;" horiz-adv-x="685" 
d="M145 428l134 -327l51 114l-88 213h-44v16h318v-16h-52q-9 0 -15 -3t-8.5 -6t-5.5 -10l-49 -109l82 -199l127 295q5 13 5 18q0 14 -23 14h-31v16h144v-16h-35q-29 0 -44 -33l-176 -403h-8l-90 207l-92 -207h-8l-182 436h-60v16h186v-16h-36zM332 428l47 -111l37 84
q4 8 4 17q0 10 -18 10h-70z" />
    <glyph glyph-name="X.sc" unicode="&#xe037;" horiz-adv-x="500" 
d="M98 59l118 157l-138 212h-54v16h210v-16h-48l90 -144l83 110q12 16 12 24q0 10 -19 10h-33v16h139v-16h-34q-19 0 -38 -24l-102 -132l165 -256h52v-16h-210v16h53l-120 188l-112 -150q-14 -19 -14 -26q0 -12 27 -12h24v-16h-150v16h28q39 0 71 43z" />
    <glyph glyph-name="Y.sc" unicode="&#xe038;" horiz-adv-x="444" 
d="M184 16v161l-133 251h-56v16h210v-16h-52l111 -223l97 185q7 15 7 25q0 7 -6 10t-24 3h-15v16h126v-16h-28q-11 0 -20 -6.5t-13 -13t-12 -21.5l-108 -204v-167h83v-16h-250v16h83z" />
    <glyph glyph-name="Yacute.sc" unicode="&#xe039;" horiz-adv-x="444" 
d="M184 16v161l-133 251h-56v16h210v-16h-52l111 -223l97 185q7 15 7 25q0 7 -6 10t-24 3h-15v16h126v-16h-28q-11 0 -20 -6.5t-13 -13t-12 -21.5l-108 -204v-167h83v-16h-250v16h83zM168 486l145 144q25 25 43 25q11 0 21.5 -10t10.5 -24q0 -10 -5.5 -17.5t-11.5 -12
t-23 -15.5l-145 -90h-35z" />
    <glyph glyph-name="Ydieresis.sc" unicode="&#xe03a;" horiz-adv-x="444" 
d="M184 16v161l-133 251h-56v16h210v-16h-52l111 -223l97 185q7 15 7 25q0 7 -6 10t-24 3h-15v16h126v-16h-28q-11 0 -20 -6.5t-13 -13t-12 -21.5l-108 -204v-167h83v-16h-250v16h83zM326 596q18 0 31.5 -13.5t13.5 -31.5t-13.5 -31.5t-31.5 -13.5q-19 0 -32 13.5t-13 31.5
t13 31.5t32 13.5zM138 596q18 0 31.5 -13.5t13.5 -31.5t-13.5 -31.5t-31.5 -13.5q-19 0 -32 13.5t-13 31.5t13 31.5t32 13.5z" />
    <glyph glyph-name="Z.sc" unicode="&#xe03b;" horiz-adv-x="463" 
d="M66 444h341l-270 -428h75q54 0 90 6.5t54.5 14.5t27.5 26t10.5 30t1.5 38h10v-131h-381l272 428h-72q-42 0 -69.5 -4.5t-43.5 -11t-23.5 -22.5t-9.5 -30.5t-3 -42.5h-10v127z" />
    <glyph glyph-name="Zcaron.sc" unicode="&#xe03c;" horiz-adv-x="463" 
d="M66 444h341l-270 -428h75q54 0 90 6.5t54.5 14.5t27.5 26t10.5 30t1.5 38h10v-131h-381l272 428h-72q-42 0 -69.5 -4.5t-43.5 -11t-23.5 -22.5t-9.5 -30.5t-3 -42.5h-10v127zM372 655l-122 -169h-56l-122 169h33l117 -106l117 106h33z" />
    <glyph glyph-name="f_i.sc" unicode="&#xe03d;" horiz-adv-x="704" 
d="M96 16v412h-72v16h362l16 -119h-16q-6 60 -32.5 81.5t-88.5 21.5h-85v-193h37q48 0 60 13.5t14 64.5h16v-172h-16q-2 51 -14 64.5t-60 13.5h-37v-203h84v-16h-240v16h72zM523 16v412h-73v16h230v-16h-73v-412h73v-16h-230v16h73z" />
    <glyph glyph-name="f_l.sc" unicode="&#xe03e;" horiz-adv-x="870" 
d="M96 16v412h-72v16h362l16 -119h-16q-6 60 -32.5 81.5t-88.5 21.5h-85v-193h37q48 0 60 13.5t14 64.5h16v-172h-16q-2 51 -14 64.5t-60 13.5h-37v-203h84v-16h-240v16h72zM522 16v412h-80v16h246v-16h-82v-412h97q73 0 101 30t28 103h16v-149h-406v16h80z" />
    <glyph glyph-name="germandbls.sc" unicode="&#xe03f;" horiz-adv-x="814" 
d="M56 0v163h16q7 -73 36.5 -114t99.5 -41q49 0 75 28t26 64q0 19 -5.5 32.5t-12 21t-26.5 15t-32 10.5t-46 11q-28 6 -46.5 13t-38 21.5t-29.5 39.5t-10 61q0 50 30.5 88.5t92.5 38.5q28 0 51.5 -9t37.5 -18t18 -9q11 0 11 28h16v-135h-16q-7 127 -120 127q-39 0 -62 -22
t-23 -61q0 -13 3 -23t11.5 -18t14 -13t21.5 -10t22 -7t27 -6.5t26 -5.5q60 -14 93.5 -42.5t33.5 -95.5q0 -62 -36 -101t-101 -39q-44 0 -85.5 16.5t-42.5 16.5q-14 0 -14 -13v-12h-16zM463 0v163h16q7 -73 36.5 -114t99.5 -41q49 0 75 28t26 64q0 19 -5.5 32.5t-12 21
t-26.5 15t-32 10.5t-46 11q-28 6 -46.5 13t-38 21.5t-29.5 39.5t-10 61q0 50 30.5 88.5t92.5 38.5q28 0 51.5 -9t37.5 -18t18 -9q11 0 11 28h16v-135h-16q-7 127 -120 127q-39 0 -62 -22t-23 -61q0 -13 3 -23t11.5 -18t14 -13t21.5 -10t22 -7t27 -6.5t26 -5.5
q60 -14 93.5 -42.5t33.5 -95.5q0 -62 -36 -101t-101 -39q-44 0 -85.5 16.5t-42.5 16.5q-14 0 -14 -13v-12h-16z" />
    <glyph glyph-name="zero.taboldstyle" unicode="&#xf643;" horiz-adv-x="556" 
d="M154 226q0 -94 36.5 -155t113.5 -61q65 0 114.5 56t49.5 160q0 95 -47 155.5t-120 60.5q-15 0 -30.5 -3.5t-37.5 -16.5t-38.5 -35t-28.5 -63.5t-12 -97.5zM64 226q0 105 62 172.5t159 67.5q58 0 101 -23t64.5 -60.5t31.5 -76.5t10 -80q0 -102 -53 -171t-151 -69
q-102 0 -163 65.5t-61 174.5z" />
    <glyph glyph-name="one.taboldstyle" unicode="&#xf644;" horiz-adv-x="556" 
d="M155 0v16h81v420h-81v16h246v-16h-81v-420h81v-16h-246z" />
    <glyph glyph-name="two.taboldstyle" unicode="&#xf645;" horiz-adv-x="556" 
d="M84 0v57q155 63 208.5 116t53.5 138q0 67 -23 103t-87 36q-29 0 -54.5 -12t-37 -24.5t-11.5 -19.5t4.5 -11t9 -5.5t15.5 -3.5q37 -6 37 -44q0 -18 -15 -32t-37 -14q-25 0 -40.5 16.5t-15.5 37.5q0 64 53 96t120 32q82 0 127 -43.5t45 -102.5q0 -62 -41.5 -103.5
t-108.5 -77.5l-122 -65v-2h277l15 102h16l-25 -174h-363z" />
    <glyph glyph-name="three.taboldstyle" unicode="&#xf646;" horiz-adv-x="556" 
d="M166 163h33q88 0 133.5 32t45.5 115q0 140 -112 140q-48 0 -84 -24.5t-36 -41.5q0 -2 0.5 -3t1.5 -2.5t2.5 -2t3.5 -1.5t3.5 -1.5t5 -1t5 -0.5t5.5 -1t6 -1q33 -5 33 -42q0 -19 -11.5 -33.5t-32.5 -14.5q-25 0 -38.5 16.5t-13.5 39.5q0 63 47.5 96.5t112.5 33.5
q81 0 133.5 -43.5t52.5 -111.5q0 -137 -188 -155v-2q55 -5 97 -21.5t64 -37.5t35.5 -48.5t17 -47t3.5 -39.5q0 -97 -76.5 -152.5t-173.5 -55.5q-77 0 -126.5 39t-49.5 99q0 29 16.5 50t45.5 21q23 0 39 -15t16 -36q0 -48 -39 -48q-3 0 -12 1.5t-16 1.5q-20 0 -20 -18
q0 -26 40 -52.5t104 -26.5q162 0 162 196q0 52 -16.5 89t-37 54.5t-54 27.5t-50.5 11t-43 1h-34v16z" />
    <glyph glyph-name="four.taboldstyle" unicode="&#xf647;" horiz-adv-x="556" 
d="M300 -228v228h-284l350 478h20l-304 -418h218v258h84v-258h98v-60h-98v-228h-84z" />
    <glyph glyph-name="five.taboldstyle" unicode="&#xf648;" horiz-adv-x="556" 
d="M404 477h16q0 -34 -9 -56t-26 -30.5t-28 -10.5t-28 -2q-19 0 -65 8t-60 8q-25 0 -43.5 -6.5t-18.5 -13.5t2.5 -36.5t2.5 -46.5q0 -66 -15 -137q51 36 127 36q107 0 169.5 -64t62.5 -143q0 -112 -72.5 -171.5t-186.5 -59.5q-74 0 -120.5 39.5t-46.5 94.5q0 33 20 52t44 19
q19 0 34.5 -10.5t15.5 -35.5q0 -16 -10.5 -30t-28.5 -14q-7 0 -15.5 1.5t-11.5 1.5q-14 0 -14 -18q0 -30 36 -57t94 -27q48 0 83 18t53.5 48.5t27 64t8.5 71.5q0 94 -43.5 149t-112.5 55q-75 0 -122 -45l-11 7q19 75 19 144q0 91 -19 164q35 22 96 22q42 0 106 -12
q46 -10 65 -10q25 0 25 33z" />
    <glyph glyph-name="six.taboldstyle" unicode="&#xf649;" horiz-adv-x="556" 
d="M413 230q0 35 -5.5 65.5t-18 61.5t-39 49t-63.5 18q-20 0 -42 -7.5t-46.5 -25.5t-40 -56t-15.5 -91q0 -28 1.5 -50.5t5.5 -53t13.5 -53t23.5 -43t37.5 -31.5t53.5 -11q36 0 61.5 15.5t39.5 37.5t22 55t10 59.5t2 60.5zM461 714v-16q-89 -19 -150 -52.5t-94 -81t-48 -96.5
t-20 -116h2q55 88 152 88q94 0 147 -62t53 -150q0 -99 -63 -170.5t-162 -71.5q-105 0 -165 79.5t-60 190.5q0 77 21 143.5t54.5 111.5t76 82t84 59t79.5 36.5t61.5 20t31.5 5.5z" />
    <glyph glyph-name="seven.taboldstyle" unicode="&#xf64a;" horiz-adv-x="556" 
d="M65 284l22 168h423l-13 -25q-54 -103 -151.5 -320.5t-97.5 -259.5q0 -11 11 -11q5 0 12.5 3t14.5 3q16 0 28 -11.5t12 -30.5q0 -23 -13 -35.5t-35 -12.5q-27 0 -40.5 19.5t-13.5 49.5q0 47 27 115l172 438h-323l-19 -90h-16z" />
    <glyph glyph-name="eight.taboldstyle" unicode="&#xf64b;" horiz-adv-x="556" 
d="M45 160q0 81 61 131t149 75v2q-176 44 -176 161q0 73 56 122t143 49t143 -49t56 -122q0 -117 -176 -161v-2q88 -25 149 -75t61 -131q0 -83 -69 -128.5t-164 -45.5t-164 45.5t-69 128.5zM141 167q0 -70 34.5 -117.5t102.5 -47.5t102.5 47.5t34.5 117.5q0 160 -137 190
q-137 -30 -137 -190zM163 541q0 -142 115 -168q115 26 115 168q0 61 -28.5 102t-86.5 41t-86.5 -41t-28.5 -102z" />
    <glyph glyph-name="nine.taboldstyle" unicode="&#xf64c;" horiz-adv-x="556" 
d="M143 222q0 -35 5.5 -65.5t18 -61.5t39 -49t63.5 -18q20 0 42 7.5t46.5 25.5t40 56t15.5 91q0 28 -1.5 50.5t-5.5 53t-13.5 53t-23.5 43t-37.5 31.5t-53.5 11q-36 0 -61.5 -15.5t-39.5 -37.5t-22 -55t-10 -59.5t-2 -60.5zM95 -262v16q89 19 150 52.5t94 81t48 96.5t20 116
h-2q-55 -88 -152 -88q-94 0 -147 62t-53 150q0 99 63 170.5t162 71.5q105 0 165 -79.5t60 -190.5q0 -77 -21 -143.5t-54.5 -111.5t-76 -82t-84 -59t-79.5 -36.5t-61.5 -20t-31.5 -5.5z" />
    <glyph glyph-name="dollar.taboldstyle" unicode="&#xf653;" horiz-adv-x="556" 
d="M273 305v-299q5 -2 16 -2q72 0 118.5 41t46.5 107q0 27 -6 48t-13 35.5t-24 26t-27.5 17.5t-35 12t-35.5 8t-40 6zM257 420v273q-4 1 -11 1q-68 0 -109 -38.5t-41 -104.5q0 -35 12 -59t37 -38t49.5 -21t62.5 -13zM257 -159v149q-46 4 -98 26.5t-64 22.5q-25 0 -25 -41
h-16v248h16q0 -108 52 -168.5t135 -70.5v301q-36 5 -59.5 10.5t-52 20t-45.5 35.5t-28.5 57.5t-11.5 85.5q0 84 50.5 138.5t136.5 54.5q7 0 10 -1v65h16v-66q46 -5 91.5 -31.5t52.5 -26.5q5 0 9 1t6.5 3t5 5t4 5t3 6t2 6l1.5 6t1 5h16v-206h-16q-6 86 -51 144t-125 67v-275
q40 -7 66 -13.5t60.5 -22t54 -36t34 -56.5t14.5 -84q0 -93 -56.5 -155t-160.5 -62q-8 0 -12 1v-148h-16z" />
    <glyph glyph-name="cent.taboldstyle" unicode="&#xf654;" horiz-adv-x="556" 
d="M282 6v408q-56 -6 -77 -45.5t-21 -110.5v-87q0 -30 1 -48.5t6.5 -42t15.5 -37t29 -24.5t46 -13zM282 -127v117q-87 5 -140.5 63t-53.5 140q0 91 56.5 159t137.5 78v73h16v-71h8q57 0 100.5 -24.5t43.5 -68.5q0 -22 -14.5 -36t-33.5 -14q-22 0 -35 13t-13 30q0 23 12.5 36
t12.5 17q0 15 -24.5 23t-50.5 8h-6v-412q71 0 109.5 41.5t44.5 95.5h16q-2 -60 -50 -106.5t-120 -46.5v-115h-16z" />
    <glyph glyph-name="breve.sc" unicode="&#xf6f4;" 
d="M0 671h30q17 -101 109 -101t109 101h30q-6 -70 -41 -112.5t-98 -42.5t-98 42.5t-41 112.5z" />
    <glyph glyph-name="caron.sc" unicode="&#xf6f5;" 
d="M289 685l-122 -169h-56l-122 169h33l117 -106l117 106h33z" />
    <glyph glyph-name="circumflex.sc" unicode="&#xf6f6;" 
d="M-11 516l122 169h56l122 -169h-33l-117 106l-117 -106h-33z" />
    <glyph glyph-name="dotaccent.sc" unicode="&#xf6f7;" 
d="M139 626q18 0 31.5 -13.5t13.5 -31.5t-13.5 -31.5t-31.5 -13.5q-19 0 -32 13.5t-13 31.5t13 31.5t32 13.5z" />
    <glyph glyph-name="hungarumlaut.sc" unicode="&#xf6f8;" 
d="M-40 516l145 144q25 25 43 25q11 0 21.5 -10t10.5 -24q0 -10 -5.5 -17.5t-11.5 -12t-23 -15.5l-145 -90h-35zM160 516l145 144q25 25 43 25q11 0 21.5 -10t10.5 -24q0 -10 -5.5 -17.5t-11.5 -12t-23 -15.5l-145 -90h-35z" />
    <glyph glyph-name="lslash.sc" unicode="&#xf6f9;" horiz-adv-x="444" 
d="M96 16v191l-77 -44v16l77 44v205h-80v16h246v-16h-82v-158l121 69v-16l-121 -69v-238h97q73 0 101 30t28 103h16v-149h-406v16h80z" />
    <glyph glyph-name="oe.sc" unicode="&#xf6fa;" horiz-adv-x="704" 
d="M337 16v412q-48 8 -77 8q-124 0 -124 -214t124 -214q29 0 77 8zM421 428v-193h37q48 0 60 13.5t14 64.5h16v-172h-16q-2 51 -14 64.5t-60 13.5h-37v-203h113q112 0 112 118h16v-134h-299q-21 0 -53 -4t-50 -4q-96 0 -158 68t-62 162q0 92 60 161t160 69q18 0 50 -4t53 -4
h263l12 -113h-16q-4 53 -28 75t-78 22h-95z" />
    <glyph glyph-name="ogonek.sc" unicode="&#xf6fb;" 
d="M165 -154l7 -14q-53 -46 -110 -46q-30 0 -48 18.5t-18 51.5q0 73 135 144h17q-86 -71 -86 -134q0 -21 14 -32.5t35 -11.5q28 0 54 24z" />
    <glyph glyph-name="ring.sc" unicode="&#xf6fc;" 
d="M139 705q37 0 63.5 -26.5t26.5 -63.5t-26.5 -63.5t-63.5 -26.5t-63.5 26.5t-26.5 63.5t26.5 63.5t63.5 26.5zM139 675q-25 0 -42.5 -18t-17.5 -42t17.5 -42t42.5 -18t42.5 18t17.5 42t-17.5 42t-42.5 18z" />
    <glyph glyph-name="scaron.sc" unicode="&#xf6fd;" horiz-adv-x="407" 
d="M56 0v163h16q7 -73 36.5 -114t99.5 -41q49 0 75 28t26 64q0 19 -5.5 32.5t-12 21t-26.5 15t-32 10.5t-46 11q-28 6 -46.5 13t-38 21.5t-29.5 39.5t-10 61q0 50 30.5 88.5t92.5 38.5q28 0 51.5 -9t37.5 -18t18 -9q11 0 11 28h16v-135h-16q-7 127 -120 127q-39 0 -62 -22
t-23 -61q0 -13 3 -23t11.5 -18t14 -13t21.5 -10t22 -7t27 -6.5t26 -5.5q60 -14 93.5 -42.5t33.5 -95.5q0 -62 -36 -101t-101 -39q-44 0 -85.5 16.5t-42.5 16.5q-14 0 -14 -13v-12h-16zM354 655l-122 -169h-56l-122 169h33l117 -106l117 106h33z" />
    <glyph glyph-name="tilde.sc" unicode="&#xf6fe;" 
d="M276 642h26q-13 -44 -39.5 -73t-68.5 -29q-32 0 -74 24q-43 24 -63 24q-40 0 -55 -48h-26q13 44 39.5 73t68.5 29q32 0 74 -24q43 -24 63 -24q40 0 55 48z" />
    <glyph glyph-name="zcaron.sc" unicode="&#xf6ff;" horiz-adv-x="463" 
d="M66 444h341l-270 -428h75q54 0 90 6.5t54.5 14.5t27.5 26t10.5 30t1.5 38h10v-131h-381l272 428h-72q-42 0 -69.5 -4.5t-43.5 -11t-23.5 -22.5t-9.5 -30.5t-3 -42.5h-10v127zM372 655l-122 -169h-56l-122 169h33l117 -106l117 106h33z" />
    <glyph glyph-name="exclam.sc" unicode="&#xf721;" horiz-adv-x="388" 
d="M186 148v58q0 95 -12 214t-40 190q28 37 55 102q3 8 5 8t5 -8q27 -65 55 -102q-28 -71 -40 -190t-12 -214v-58h-16zM194 90q20 0 35.5 -15t15.5 -36t-15.5 -36t-35.5 -15q-21 0 -36 15t-15 36t15 36t36 15z" />
    <glyph glyph-name="dollar.oldstyle" unicode="&#xf724;" horiz-adv-x="556" 
d="M273 305v-299q5 -2 16 -2q72 0 118.5 41t46.5 107q0 27 -6 48t-13 35.5t-24 26t-27.5 17.5t-35 12t-35.5 8t-40 6zM257 420v273q-4 1 -11 1q-68 0 -109 -38.5t-41 -104.5q0 -35 12 -59t37 -38t49.5 -21t62.5 -13zM257 -159v149q-46 4 -98 26.5t-64 22.5q-25 0 -25 -41
h-16v248h16q0 -108 52 -168.5t135 -70.5v301q-36 5 -59.5 10.5t-52 20t-45.5 35.5t-28.5 57.5t-11.5 85.5q0 84 50.5 138.5t136.5 54.5q7 0 10 -1v65h16v-66q46 -5 91.5 -31.5t52.5 -26.5q5 0 9 1t6.5 3t5 5t4 5t3 6t2 6l1.5 6t1 5h16v-206h-16q-6 86 -51 144t-125 67v-275
q40 -7 66 -13.5t60.5 -22t54 -36t34 -56.5t14.5 -84q0 -93 -56.5 -155t-160.5 -62q-8 0 -12 1v-148h-16z" />
    <glyph glyph-name="ampersand.sc" unicode="&#xf726;" horiz-adv-x="519" 
d="M168 384q0 -37 41 -102q60 35 60 92q0 24 -15 43t-36 19q-23 0 -36.5 -14t-13.5 -38zM218 269l100 -131q27 41 38 56.5t26 27t33 11.5t31 -12.5t13 -33.5t-11.5 -32.5t-30.5 -11.5q-17 0 -26.5 11.5t-9.5 24.5q0 14 5 24q-14 -1 -60 -74q3 -3 12.5 -15t14 -17.5t13.5 -16
t15.5 -16t14.5 -12t15.5 -9.5t13.5 -3q11 0 22 7t16.5 14t15.5 21t13 18l10 -6q-11 -22 -19.5 -36t-23 -31t-33.5 -26t-42 -9q-51 0 -106 71q-38 -39 -65.5 -55t-71.5 -16q-48 0 -76.5 36t-28.5 71q0 42 28 75.5t77 67.5q-33 52 -33 105q0 43 28.5 74t70.5 31q33 0 55.5 -21
t22.5 -57q0 -60 -67 -105zM96 160q0 -23 37 -74.5t68 -51.5q36 0 66 40q-50 60 -117 154q-30 -22 -42 -36.5t-12 -31.5z" />
    <glyph glyph-name="zero.oldstyle" unicode="&#xf730;" horiz-adv-x="536" 
d="M144 226q0 -94 36.5 -155t113.5 -61q65 0 114.5 56t49.5 160q0 95 -47 155.5t-120 60.5q-15 0 -30.5 -3.5t-37.5 -16.5t-38.5 -35t-28.5 -63.5t-12 -97.5zM54 226q0 105 62 172.5t159 67.5q58 0 101 -23t64.5 -60.5t31.5 -76.5t10 -80q0 -102 -53 -171t-151 -69
q-102 0 -163 65.5t-61 174.5z" />
    <glyph glyph-name="one.oldstyle" unicode="&#xf731;" horiz-adv-x="332" 
d="M43 0v16h81v420h-81v16h246v-16h-81v-420h81v-16h-246z" />
    <glyph glyph-name="two.oldstyle" unicode="&#xf732;" horiz-adv-x="480" 
d="M46 0v57q155 63 208.5 116t53.5 138q0 67 -23 103t-87 36q-29 0 -54.5 -12t-37 -24.5t-11.5 -19.5t4.5 -11t9 -5.5t15.5 -3.5q37 -6 37 -44q0 -18 -15 -32t-37 -14q-25 0 -40.5 16.5t-15.5 37.5q0 64 53 96t120 32q82 0 127 -43.5t45 -102.5q0 -62 -41.5 -103.5
t-108.5 -77.5l-122 -65v-2h277l15 102h16l-25 -174h-363z" />
    <glyph glyph-name="three.oldstyle" unicode="&#xf733;" horiz-adv-x="464" 
d="M120 163h33q88 0 133.5 32t45.5 115q0 140 -112 140q-48 0 -84 -24.5t-36 -41.5q0 -2 0.5 -3t1.5 -2.5t2.5 -2t3.5 -1.5t3.5 -1.5t5 -1t5 -0.5t5.5 -1t6 -1q33 -5 33 -42q0 -19 -11.5 -33.5t-32.5 -14.5q-25 0 -38.5 16.5t-13.5 39.5q0 63 47.5 96.5t112.5 33.5
q81 0 133.5 -43.5t52.5 -111.5q0 -137 -188 -155v-2q55 -5 97 -21.5t64 -37.5t35.5 -48.5t17 -47t3.5 -39.5q0 -97 -76.5 -152.5t-173.5 -55.5q-77 0 -126.5 39t-49.5 99q0 29 16.5 50t45.5 21q23 0 39 -15t16 -36q0 -48 -39 -48q-3 0 -12 1.5t-16 1.5q-20 0 -20 -18
q0 -26 40 -52.5t104 -26.5q162 0 162 196q0 52 -16.5 89t-37 54.5t-54 27.5t-50.5 11t-43 1h-34v16z" />
    <glyph glyph-name="four.oldstyle" unicode="&#xf734;" horiz-adv-x="464" 
d="M254 -228v228h-284l350 478h20l-304 -418h218v258h84v-258h98v-60h-98v-228h-84z" />
    <glyph glyph-name="five.oldstyle" unicode="&#xf735;" horiz-adv-x="464" 
d="M358 477h16q0 -34 -9 -56t-26 -30.5t-28 -10.5t-28 -2q-19 0 -65 8t-60 8q-25 0 -43.5 -6.5t-18.5 -13.5t2.5 -36.5t2.5 -46.5q0 -66 -15 -137q51 36 127 36q107 0 169.5 -64t62.5 -143q0 -112 -72.5 -171.5t-186.5 -59.5q-74 0 -120.5 39.5t-46.5 94.5q0 33 20 52t44 19
q19 0 34.5 -10.5t15.5 -35.5q0 -16 -10.5 -30t-28.5 -14q-7 0 -15.5 1.5t-11.5 1.5q-14 0 -14 -18q0 -30 36 -57t94 -27q48 0 83 18t53.5 48.5t27 64t8.5 71.5q0 94 -43.5 149t-112.5 55q-75 0 -122 -45l-11 7q19 75 19 144q0 91 -19 164q35 22 96 22q42 0 106 -12
q46 -10 65 -10q25 0 25 33z" />
    <glyph glyph-name="six.oldstyle" unicode="&#xf736;" horiz-adv-x="556" 
d="M413 230q0 35 -5.5 65.5t-18 61.5t-39 49t-63.5 18q-20 0 -42 -7.5t-46.5 -25.5t-40 -56t-15.5 -91q0 -28 1.5 -50.5t5.5 -53t13.5 -53t23.5 -43t37.5 -31.5t53.5 -11q36 0 61.5 15.5t39.5 37.5t22 55t10 59.5t2 60.5zM461 714v-16q-89 -19 -150 -52.5t-94 -81t-48 -96.5
t-20 -116h2q55 88 152 88q94 0 147 -62t53 -150q0 -99 -63 -170.5t-162 -71.5q-105 0 -165 79.5t-60 190.5q0 77 21 143.5t54.5 111.5t76 82t84 59t79.5 36.5t61.5 20t31.5 5.5z" />
    <glyph glyph-name="seven.oldstyle" unicode="&#xf737;" horiz-adv-x="464" 
d="M19 284l22 168h423l-13 -25q-54 -103 -151.5 -320.5t-97.5 -259.5q0 -11 11 -11q5 0 12.5 3t14.5 3q16 0 28 -11.5t12 -30.5q0 -23 -13 -35.5t-35 -12.5q-27 0 -40.5 19.5t-13.5 49.5q0 47 27 115l172 438h-323l-19 -90h-16z" />
    <glyph glyph-name="eight.oldstyle" unicode="&#xf738;" horiz-adv-x="556" 
d="M45 160q0 81 61 131t149 75v2q-176 44 -176 161q0 73 56 122t143 49t143 -49t56 -122q0 -117 -176 -161v-2q88 -25 149 -75t61 -131q0 -83 -69 -128.5t-164 -45.5t-164 45.5t-69 128.5zM141 167q0 -70 34.5 -117.5t102.5 -47.5t102.5 47.5t34.5 117.5q0 160 -137 190
q-137 -30 -137 -190zM163 541q0 -142 115 -168q115 26 115 168q0 61 -28.5 102t-86.5 41t-86.5 -41t-28.5 -102z" />
    <glyph glyph-name="nine.oldstyle" unicode="&#xf739;" horiz-adv-x="556" 
d="M143 222q0 -35 5.5 -65.5t18 -61.5t39 -49t63.5 -18q20 0 42 7.5t46.5 25.5t40 56t15.5 91q0 28 -1.5 50.5t-5.5 53t-13.5 53t-23.5 43t-37.5 31.5t-53.5 11q-36 0 -61.5 -15.5t-39.5 -37.5t-22 -55t-10 -59.5t-2 -60.5zM95 -262v16q89 19 150 52.5t94 81t48 96.5t20 116
h-2q-55 -88 -152 -88q-94 0 -147 62t-53 150q0 99 63 170.5t162 71.5q105 0 165 -79.5t60 -190.5q0 -77 -21 -143.5t-54.5 -111.5t-76 -82t-84 -59t-79.5 -36.5t-61.5 -20t-31.5 -5.5z" />
    <glyph glyph-name="question.sc" unicode="&#xf73f;" horiz-adv-x="500" 
d="M196 149l-13 -3q-17 68 -17 123q0 49 20.5 88t50 65t58.5 50t49.5 55t20.5 68q0 51 -38 80t-90 29q-33 0 -64.5 -17t-31.5 -43q0 -9 10.5 -13t22.5 -5.5t22.5 -12.5t10.5 -32q0 -22 -13.5 -33.5t-35.5 -11.5q-24 0 -38.5 21t-14.5 45q0 50 39 84t93 34q75 0 116.5 -47
t41.5 -123q0 -60 -17.5 -95t-50.5 -65q-83 -77 -110 -110.5t-27 -72.5q0 -30 6 -58zM194 90q20 0 35.5 -15t15.5 -36t-15.5 -36t-35.5 -15q-21 0 -36 15t-15 36t15 36t36 15z" />
    <glyph glyph-name="grave.sc" unicode="&#xf760;" 
d="M183 516l-145 90q-17 11 -23 15.5t-11.5 12t-5.5 17.5q0 14 10.5 24t21.5 10q18 0 43 -25l145 -144h-35z" />
    <glyph glyph-name="a.sc" unicode="&#xf761;" horiz-adv-x="463" 
d="M235 452l171 -436h55v-16h-208v16h57l-50 129h-136l-37 -91q-6 -16 -6 -23q0 -15 30 -15h28v-16h-137v16h22q32 0 50 45l156 391h5zM193 324l-64 -163h125z" />
    <glyph glyph-name="b.sc" unicode="&#xf762;" horiz-adv-x="463" 
d="M180 428v-184h37q44 0 68.5 19.5t24.5 68.5q0 13 -0.5 22t-6 24.5t-14.5 25t-28.5 17t-46.5 7.5h-34zM96 16v412h-72v16h204q34 0 58 -3t51.5 -12t42 -31t14.5 -55q0 -32 -18 -55t-44.5 -33t-47 -14t-35.5 -4v-2q64 -5 111 -32t47 -85q0 -118 -180 -118h-203v16h72z
M180 228v-212h37q14 0 24 1t25.5 7t25.5 17t17.5 33t7.5 53q0 34 -10 56.5t-28.5 31t-30.5 10.5t-30 3h-38z" />
    <glyph glyph-name="c.sc" unicode="&#xf763;" horiz-adv-x="463" 
d="M409 432v-134h-9q-10 60 -46 100t-96 38q-122 0 -122 -214t120 -214q61 0 99.5 44.5t43.5 111.5h10v-156h-10q-5 28 -16 31q-2 1 -5 1q-5 0 -20.5 -12t-41.5 -24t-56 -12q-96 0 -158 68t-62 162q0 92 60 161t160 69q28 0 54.5 -11.5t42.5 -23t21 -11.5q16 0 21 26h10z
" />
    <glyph glyph-name="d.sc" unicode="&#xf764;" horiz-adv-x="519" 
d="M96 16v412h-72v16h226q46 0 83.5 -12t61 -29.5t40 -42t24.5 -44.5t12.5 -43.5t5 -32.5t0.5 -18q0 -38 -10.5 -73.5t-35 -70.5t-74 -56.5t-118.5 -21.5h-215v16h72zM180 428v-412q29 0 44 0.5t40 4.5t38.5 11.5t31 23t26 37.5t15 56.5t6.5 78.5q0 57 -14 97t-32 59.5
t-50 30t-51.5 12t-53.5 1.5z" />
    <glyph glyph-name="e.sc" unicode="&#xf765;" horiz-adv-x="463" 
d="M96 16v412h-72v16h361l12 -113h-16q-4 53 -28 75t-78 22h-95v-193h37q48 0 60 13.5t14 64.5h16v-172h-16q-2 51 -14 64.5t-60 13.5h-37v-203h113q112 0 112 118h16v-134h-397v16h72z" />
    <glyph glyph-name="f.sc" unicode="&#xf766;" horiz-adv-x="426" 
d="M96 16v412h-72v16h362l16 -119h-16q-6 60 -32.5 81.5t-88.5 21.5h-85v-193h37q48 0 60 13.5t14 64.5h16v-172h-16q-2 51 -14 64.5t-60 13.5h-37v-203h84v-16h-240v16h72z" />
    <glyph glyph-name="g.sc" unicode="&#xf767;" horiz-adv-x="519" 
d="M287 156h222v-16h-66v-82q-83 -66 -178 -66q-99 0 -162 61t-63 159q0 63 20.5 111.5t53.5 75.5t69 40t74 13q36 0 64.5 -12t45 -24.5t23.5 -12.5q20 0 20 41h16v-143h-16q-7 38 -25.5 65.5t-41.5 39.5t-41.5 17t-34.5 5q-35 0 -60.5 -15.5t-39 -36.5t-21 -53.5t-9 -57
t-1.5 -55.5q0 -202 128 -202q10 0 22.5 2.5t30.5 9t30 22.5t12 39v59h-72v16z" />
    <glyph glyph-name="h.sc" unicode="&#xf768;" horiz-adv-x="574" 
d="M96 16v412h-72v16h230v-16h-74v-193h214v193h-74v16h230v-16h-72v-412h72v-16h-230v16h74v203h-214v-203h74v-16h-230v16h72z" />
    <glyph glyph-name="i.sc" unicode="&#xf769;" 
d="M97 16v412h-73v16h230v-16h-73v-412h73v-16h-230v16h73z" />
    <glyph glyph-name="j.sc" unicode="&#xf76a;" horiz-adv-x="296" 
d="M204 428v-333q0 -38 -8 -68.5t-34 -55t-68 -24.5q-37 0 -57.5 17.5t-20.5 44.5q0 22 11.5 31.5t25.5 9.5q35 0 35 -34q0 -19 -17 -27t-17 -16q0 -16 35 -16q50 0 50 50q0 12 -9.5 41t-9.5 54v326h-79v16h239v-16h-76z" />
    <glyph glyph-name="k.sc" unicode="&#xf76b;" horiz-adv-x="519" 
d="M96 16v412h-72v16h230v-16h-74v-194l174 162q2 2 7 6l7.5 6t4.5 5.5t2 7.5q0 7 -13 7h-58v16h174v-16h-51q-15 0 -33 -16l-143 -134l176 -246q12 -16 40 -16h38v-16h-236v16h64l-147 204l-6 -5v-199h67v-16h-223v16h72z" />
    <glyph glyph-name="l.sc" unicode="&#xf76c;" horiz-adv-x="444" 
d="M96 16v412h-80v16h246v-16h-82v-412h97q73 0 101 30t28 103h16v-149h-406v16h80z" />
    <glyph glyph-name="m.sc" unicode="&#xf76d;" horiz-adv-x="630" 
d="M96 57v371h-72v16h157l134 -314l131 314h160v-16h-72v-412h72v-16h-230v16h74v389h-2l-166 -396h-8l-160 387h-2v-339q0 -20 8.5 -30.5t33.5 -10.5h30v-16h-160v16h30q25 0 33.5 10.5t8.5 30.5z" />
    <glyph glyph-name="n.sc" unicode="&#xf76e;" horiz-adv-x="519" 
d="M90 428h-74v16h172l223 -303h2v246q0 20 -8.5 30.5t-33.5 10.5h-30v16h162v-16h-32q-25 0 -33.5 -10.5t-8.5 -30.5v-387h-12l-309 409h-2v-352q0 -20 8.5 -30.5t33.5 -10.5h34v-16h-166v16h32q25 0 33.5 10.5t8.5 30.5v371z" />
    <glyph glyph-name="o.sc" unicode="&#xf76f;" horiz-adv-x="519" 
d="M40 222q0 92 60 161t160 69t159.5 -69t59.5 -161q0 -94 -61.5 -162t-157.5 -68t-158 68t-62 162zM260 436q-124 0 -124 -214t124 -214q123 0 123 214t-123 214z" />
    <glyph glyph-name="p.sc" unicode="&#xf770;" horiz-adv-x="444" 
d="M96 16v412h-80v16h211q185 0 185 -126q0 -61 -49.5 -93.5t-113.5 -32.5q-29 0 -69 14v-190h83v-16h-247v16h80zM180 428v-206q38 -14 60 -14q82 0 82 110q0 54 -20.5 82t-80.5 28h-41z" />
    <glyph glyph-name="q.sc" unicode="&#xf771;" horiz-adv-x="519" 
d="M399 -114v-16h-67q-71 0 -91.5 20.5t-20.5 66.5v39q-81 15 -130.5 79t-49.5 147q0 92 60 161t160 69t159.5 -69t59.5 -161q0 -84 -50 -148.5t-131 -77.5v-45q0 -38 9.5 -51.5t45.5 -13.5h46zM260 436q-124 0 -124 -214t124 -214q123 0 123 214t-123 214z" />
    <glyph glyph-name="r.sc" unicode="&#xf772;" horiz-adv-x="481" 
d="M96 16v412h-72v16h203q172 0 172 -106q0 -90 -141 -106v-2q43 -5 69.5 -15.5t39 -30.5t16.5 -35.5t7 -47.5q8 -73 17 -85q6 -8 18 -8q22 0 42 11l5 -12q-28 -15 -67 -15q-32 0 -53.5 9t-31.5 28t-14 35t-6 42q-6 64 -16 83q-18 30 -64 30h-40v-203h71v-16h-227v16h72z
M180 428v-193h37q9 0 18 1t24.5 6.5t27 15t20 29t8.5 46.5q0 49 -23 72t-71 23h-41z" />
    <glyph glyph-name="s.sc" unicode="&#xf773;" horiz-adv-x="407" 
d="M56 0v163h16q7 -73 36.5 -114t99.5 -41q49 0 75 28t26 64q0 19 -5.5 32.5t-12 21t-26.5 15t-32 10.5t-46 11q-28 6 -46.5 13t-38 21.5t-29.5 39.5t-10 61q0 50 30.5 88.5t92.5 38.5q28 0 51.5 -9t37.5 -18t18 -9q11 0 11 28h16v-135h-16q-7 127 -120 127q-39 0 -62 -22
t-23 -61q0 -13 3 -23t11.5 -18t14 -13t21.5 -10t22 -7t27 -6.5t26 -5.5q60 -14 93.5 -42.5t33.5 -95.5q0 -62 -36 -101t-101 -39q-44 0 -85.5 16.5t-42.5 16.5q-14 0 -14 -13v-12h-16z" />
    <glyph glyph-name="t.sc" unicode="&#xf774;" horiz-adv-x="464" 
d="M190 16v412h-50q-63 0 -82.5 -27t-19.5 -91h-16v134h420v-134h-16q0 64 -19.5 91t-82.5 27h-50v-412h84v-16h-252v16h84z" />
    <glyph glyph-name="u.sc" unicode="&#xf775;" horiz-adv-x="519" 
d="M9 428v16h243v-16h-80v-290q0 -130 113 -130q56 0 92 29t36 89v261q0 20 -8.5 30.5t-33.5 10.5h-45v16h177v-16h-32q-25 0 -33.5 -10.5t-8.5 -30.5v-254q0 -141 -164 -141q-51 0 -86.5 10t-52.5 23t-26.5 35t-10.5 35t-1 36v297h-79z" />
    <glyph glyph-name="v.sc" unicode="&#xf776;" horiz-adv-x="481" 
d="M0 428v16h216v-16h-63l121 -312l113 277q5 11 5 23t-25 12h-30v16h144v-16h-31q-18 0 -28 -6.5t-19 -29.5l-164 -400h-6l-173 436h-60z" />
    <glyph glyph-name="w.sc" unicode="&#xf777;" horiz-adv-x="685" 
d="M145 428l134 -327l51 114l-88 213h-44v16h318v-16h-52q-9 0 -15 -3t-8.5 -6t-5.5 -10l-49 -109l82 -199l127 295q5 13 5 18q0 14 -23 14h-31v16h144v-16h-35q-29 0 -44 -33l-176 -403h-8l-90 207l-92 -207h-8l-182 436h-60v16h186v-16h-36zM332 428l47 -111l37 84
q4 8 4 17q0 10 -18 10h-70z" />
    <glyph glyph-name="x.sc" unicode="&#xf778;" horiz-adv-x="500" 
d="M98 59l118 157l-138 212h-54v16h210v-16h-48l90 -144l83 110q12 16 12 24q0 10 -19 10h-33v16h139v-16h-34q-19 0 -38 -24l-102 -132l165 -256h52v-16h-210v16h53l-120 188l-112 -150q-14 -19 -14 -26q0 -12 27 -12h24v-16h-150v16h28q39 0 71 43z" />
    <glyph glyph-name="y.sc" unicode="&#xf779;" horiz-adv-x="444" 
d="M184 16v161l-133 251h-56v16h210v-16h-52l111 -223l97 185q7 15 7 25q0 7 -6 10t-24 3h-15v16h126v-16h-28q-11 0 -20 -6.5t-13 -13t-12 -21.5l-108 -204v-167h83v-16h-250v16h83z" />
    <glyph glyph-name="z.sc" unicode="&#xf77a;" horiz-adv-x="463" 
d="M66 444h341l-270 -428h75q54 0 90 6.5t54.5 14.5t27.5 26t10.5 30t1.5 38h10v-131h-381l272 428h-72q-42 0 -69.5 -4.5t-43.5 -11t-23.5 -22.5t-9.5 -30.5t-3 -42.5h-10v127z" />
    <glyph glyph-name="exclamdown.sc" unicode="&#xf7a1;" horiz-adv-x="388" 
d="M202 292v-58q0 -95 12 -214t40 -190q-28 -37 -55 -102q-3 -8 -5 -8t-5 8q-27 65 -55 102q28 71 40 190t12 214v58h16zM194 350q-20 0 -35.5 15t-15.5 36t15.5 36t35.5 15q21 0 36 -15t15 -36t-15 -36t-36 -15z" />
    <glyph glyph-name="cent.oldstyle" unicode="&#xf7a2;" horiz-adv-x="556" 
d="M282 6v408q-56 -6 -77 -45.5t-21 -110.5v-87q0 -30 1 -48.5t6.5 -42t15.5 -37t29 -24.5t46 -13zM282 -127v117q-87 5 -140.5 63t-53.5 140q0 91 56.5 159t137.5 78v73h16v-71h8q57 0 100.5 -24.5t43.5 -68.5q0 -22 -14.5 -36t-33.5 -14q-22 0 -35 13t-13 30q0 23 12.5 36
t12.5 17q0 15 -24.5 23t-50.5 8h-6v-412q71 0 109.5 41.5t44.5 95.5h16q-2 -60 -50 -106.5t-120 -46.5v-115h-16z" />
    <glyph glyph-name="dieresis.sc" unicode="&#xf7a8;" 
d="M233 626q18 0 31.5 -13.5t13.5 -31.5t-13.5 -31.5t-31.5 -13.5q-19 0 -32 13.5t-13 31.5t13 31.5t32 13.5zM45 626q18 0 31.5 -13.5t13.5 -31.5t-13.5 -31.5t-31.5 -13.5q-19 0 -32 13.5t-13 31.5t13 31.5t32 13.5z" />
    <glyph glyph-name="macron.sc" unicode="&#xf7af;" 
d="M6 557v48h266v-48h-266z" />
    <glyph glyph-name="acute.sc" unicode="&#xf7b4;" 
d="M60 516l145 144q25 25 43 25q11 0 21.5 -10t10.5 -24q0 -10 -5.5 -17.5t-11.5 -12t-23 -15.5l-145 -90h-35z" />
    <glyph glyph-name="cedilla.sc" unicode="&#xf7b8;" 
d="M145 0h24l-51 -84l2 -2q22 10 61 10q29 0 54 -17t25 -45q0 -41 -35.5 -59.5t-80.5 -18.5q-43 0 -105 22l8 13q31 -11 69 -11q66 -3 66 52q0 16 -10 28t-28 12q-20 0 -41 -6l-17 7z" />
    <glyph glyph-name="questiondown.sc" unicode="&#xf7bf;" horiz-adv-x="500" 
d="M304 291l13 3q17 -68 17 -123q0 -49 -20.5 -88t-49.5 -65t-58.5 -50t-50 -55t-20.5 -68q0 -51 38 -80t90 -29q33 0 64.5 17t31.5 43q0 9 -10.5 13t-22.5 5.5t-22.5 12.5t-10.5 32q0 22 13.5 33.5t35.5 11.5q24 0 38.5 -21t14.5 -45q0 -50 -39 -84t-93 -34
q-75 0 -116.5 47t-41.5 123q0 60 17.5 95t50.5 65q83 77 110 110.5t27 72.5q0 30 -6 58zM306 350q-20 0 -35.5 15t-15.5 36t15.5 36t35.5 15q21 0 36 -15t15 -36t-15 -36t-36 -15z" />
    <glyph glyph-name="agrave.sc" unicode="&#xf7e0;" horiz-adv-x="463" 
d="M235 452l171 -436h55v-16h-208v16h57l-50 129h-136l-37 -91q-6 -16 -6 -23q0 -15 30 -15h28v-16h-137v16h22q32 0 50 45l156 391h5zM193 324l-64 -163h125zM276 486l-145 90q-17 11 -23 15.5t-11.5 12t-5.5 17.5q0 14 10.5 24t21.5 10q18 0 43 -25l145 -144h-35z" />
    <glyph glyph-name="aacute.sc" unicode="&#xf7e1;" horiz-adv-x="463" 
d="M235 452l171 -436h55v-16h-208v16h57l-50 129h-136l-37 -91q-6 -16 -6 -23q0 -15 30 -15h28v-16h-137v16h22q32 0 50 45l156 391h5zM193 324l-64 -163h125zM153 486l145 144q25 25 43 25q11 0 21.5 -10t10.5 -24q0 -10 -5.5 -17.5t-11.5 -12t-23 -15.5l-145 -90h-35z" />
    <glyph glyph-name="acircumflex.sc" unicode="&#xf7e2;" horiz-adv-x="463" 
d="M235 452l171 -436h55v-16h-208v16h57l-50 129h-136l-37 -91q-6 -16 -6 -23q0 -15 30 -15h28v-16h-137v16h22q32 0 50 45l156 391h5zM193 324l-64 -163h125zM82 486l122 169h56l122 -169h-33l-117 106l-117 -106h-33z" />
    <glyph glyph-name="atilde.sc" unicode="&#xf7e3;" horiz-adv-x="463" 
d="M235 452l171 -436h55v-16h-208v16h57l-50 129h-136l-37 -91q-6 -16 -6 -23q0 -15 30 -15h28v-16h-137v16h22q32 0 50 45l156 391h5zM193 324l-64 -163h125zM369 612h26q-13 -44 -39.5 -73t-68.5 -29q-32 0 -74 24q-43 24 -63 24q-40 0 -55 -48h-26q13 44 39.5 73t68.5 29
q32 0 74 -24q43 -24 63 -24q40 0 55 48z" />
    <glyph glyph-name="adieresis.sc" unicode="&#xf7e4;" horiz-adv-x="463" 
d="M235 452l171 -436h55v-16h-208v16h57l-50 129h-136l-37 -91q-6 -16 -6 -23q0 -15 30 -15h28v-16h-137v16h22q32 0 50 45l156 391h5zM193 324l-64 -163h125zM326 596q18 0 31.5 -13.5t13.5 -31.5t-13.5 -31.5t-31.5 -13.5q-19 0 -32 13.5t-13 31.5t13 31.5t32 13.5z
M138 596q18 0 31.5 -13.5t13.5 -31.5t-13.5 -31.5t-31.5 -13.5q-19 0 -32 13.5t-13 31.5t13 31.5t32 13.5z" />
    <glyph glyph-name="aring.sc" unicode="&#xf7e5;" horiz-adv-x="463" 
d="M235 452l171 -436h55v-16h-208v16h57l-50 129h-136l-37 -91q-6 -16 -6 -23q0 -15 30 -15h28v-16h-137v16h22q32 0 50 45l156 391h5zM193 324l-64 -163h125zM232 655q37 0 63.5 -26.5t26.5 -63.5t-26.5 -63.5t-63.5 -26.5t-63.5 26.5t-26.5 63.5t26.5 63.5t63.5 26.5z
M232 625q-25 0 -42.5 -18t-17.5 -42t17.5 -42t42.5 -18t42.5 18t17.5 42t-17.5 42t-42.5 18z" />
    <glyph glyph-name="ae.sc" unicode="&#xf7e6;" horiz-adv-x="648" 
d="M281 175v245h-2l-142 -245h144zM53 65l216 363h-84v16h385l12 -113h-16q-4 53 -28 75t-78 22h-95v-193h37q48 0 60 13.5t14 64.5h16v-172h-16q-2 51 -14 64.5t-60 13.5h-37v-203h113q112 0 112 118h16v-134h-405v16h80v143h-154l-61 -105q-10 -20 -10 -26q0 -12 42 -12
h22v-16h-162v16h15q24 0 40 7.5t22.5 15.5t17.5 26z" />
    <glyph glyph-name="ccedilla.sc" unicode="&#xf7e7;" horiz-adv-x="463" 
d="M409 432v-134h-9q-10 60 -46 100t-96 38q-122 0 -122 -214t120 -214q61 0 99.5 44.5t43.5 111.5h10v-156h-10q-5 28 -16 31q-2 1 -5 1q-5 0 -20 -11.5t-40.5 -23.5t-53.5 -13l-46 -76l2 -2q22 10 61 10q29 0 54 -17t25 -45q0 -41 -35.5 -59.5t-80.5 -18.5q-43 0 -105 22
l8 13q31 -11 69 -11q66 -3 66 52q0 16 -10 28t-28 12q-20 0 -41 -6l-17 7l54 91q-89 8 -144.5 74.5t-55.5 155.5q0 92 60 161t160 69q28 0 54.5 -11.5t42.5 -23t21 -11.5q16 0 21 26h10z" />
    <glyph glyph-name="egrave.sc" unicode="&#xf7e8;" horiz-adv-x="463" 
d="M96 16v412h-72v16h361l12 -113h-16q-4 53 -28 75t-78 22h-95v-193h37q48 0 60 13.5t14 64.5h16v-172h-16q-2 51 -14 64.5t-60 13.5h-37v-203h113q112 0 112 118h16v-134h-397v16h72zM276 486l-145 90q-17 11 -23 15.5t-11.5 12t-5.5 17.5q0 14 10.5 24t21.5 10
q18 0 43 -25l145 -144h-35z" />
    <glyph glyph-name="eacute.sc" unicode="&#xf7e9;" horiz-adv-x="463" 
d="M96 16v412h-72v16h361l12 -113h-16q-4 53 -28 75t-78 22h-95v-193h37q48 0 60 13.5t14 64.5h16v-172h-16q-2 51 -14 64.5t-60 13.5h-37v-203h113q112 0 112 118h16v-134h-397v16h72zM153 486l145 144q25 25 43 25q11 0 21.5 -10t10.5 -24q0 -10 -5.5 -17.5t-11.5 -12
t-23 -15.5l-145 -90h-35z" />
    <glyph glyph-name="ecircumflex.sc" unicode="&#xf7ea;" horiz-adv-x="463" 
d="M96 16v412h-72v16h361l12 -113h-16q-4 53 -28 75t-78 22h-95v-193h37q48 0 60 13.5t14 64.5h16v-172h-16q-2 51 -14 64.5t-60 13.5h-37v-203h113q112 0 112 118h16v-134h-397v16h72zM82 486l122 169h56l122 -169h-33l-117 106l-117 -106h-33z" />
    <glyph glyph-name="edieresis.sc" unicode="&#xf7eb;" horiz-adv-x="463" 
d="M96 16v412h-72v16h361l12 -113h-16q-4 53 -28 75t-78 22h-95v-193h37q48 0 60 13.5t14 64.5h16v-172h-16q-2 51 -14 64.5t-60 13.5h-37v-203h113q112 0 112 118h16v-134h-397v16h72zM326 596q18 0 31.5 -13.5t13.5 -31.5t-13.5 -31.5t-31.5 -13.5q-19 0 -32 13.5
t-13 31.5t13 31.5t32 13.5zM138 596q18 0 31.5 -13.5t13.5 -31.5t-13.5 -31.5t-31.5 -13.5q-19 0 -32 13.5t-13 31.5t13 31.5t32 13.5z" />
    <glyph glyph-name="igrave.sc" unicode="&#xf7ec;" 
d="M97 16v412h-73v16h230v-16h-73v-412h73v-16h-230v16h73zM183 486l-145 90q-17 11 -23 15.5t-11.5 12t-5.5 17.5q0 14 10.5 24t21.5 10q18 0 43 -25l145 -144h-35z" />
    <glyph glyph-name="iacute.sc" unicode="&#xf7ed;" 
d="M97 16v412h-73v16h230v-16h-73v-412h73v-16h-230v16h73zM72 486l145 144q25 25 43 25q11 0 21.5 -10t10.5 -24q0 -10 -5.5 -17.5t-11.5 -12t-23 -15.5l-145 -90h-35z" />
    <glyph glyph-name="icircumflex.sc" unicode="&#xf7ee;" 
d="M97 16v412h-73v16h230v-16h-73v-412h73v-16h-230v16h73zM-11 486l122 169h56l122 -169h-33l-117 106l-117 -106h-33z" />
    <glyph glyph-name="idieresis.sc" unicode="&#xf7ef;" 
d="M97 16v412h-73v16h230v-16h-73v-412h73v-16h-230v16h73zM233 596q18 0 31.5 -13.5t13.5 -31.5t-13.5 -31.5t-31.5 -13.5q-19 0 -32 13.5t-13 31.5t13 31.5t32 13.5zM45 596q18 0 31.5 -13.5t13.5 -31.5t-13.5 -31.5t-31.5 -13.5q-19 0 -32 13.5t-13 31.5t13 31.5t32 13.5
z" />
    <glyph glyph-name="eth.sc" unicode="&#xf7f0;" horiz-adv-x="519" 
d="M96 16v213h-62v16h62v183h-72v16h226q46 0 83.5 -12t61 -29.5t40 -42t24.5 -44.5t12.5 -43.5t5 -32.5t0.5 -18q0 -38 -10.5 -73.5t-35 -70.5t-74 -56.5t-118.5 -21.5h-215v16h72zM180 428v-183h97v-16h-97v-213q29 0 44 0.5t40 4.5t38.5 11.5t31 23t26 37.5t15 56.5
t6.5 78.5q0 57 -14 97t-32 59.5t-50 30t-51.5 12t-53.5 1.5z" />
    <glyph glyph-name="ntilde.sc" unicode="&#xf7f1;" horiz-adv-x="519" 
d="M90 428h-74v16h172l223 -303h2v246q0 20 -8.5 30.5t-33.5 10.5h-30v16h162v-16h-32q-25 0 -33.5 -10.5t-8.5 -30.5v-387h-12l-309 409h-2v-352q0 -20 8.5 -30.5t33.5 -10.5h34v-16h-166v16h32q25 0 33.5 10.5t8.5 30.5v371zM397 612h26q-13 -44 -39.5 -73t-68.5 -29
q-32 0 -74 24q-43 24 -63 24q-40 0 -55 -48h-26q13 44 39.5 73t68.5 29q32 0 74 -24q43 -24 63 -24q40 0 55 48z" />
    <glyph glyph-name="ograve.sc" unicode="&#xf7f2;" horiz-adv-x="519" 
d="M40 222q0 92 60 161t160 69t159.5 -69t59.5 -161q0 -94 -61.5 -162t-157.5 -68t-158 68t-62 162zM260 436q-124 0 -124 -214t124 -214q123 0 123 214t-123 214zM304 486l-145 90q-17 11 -23 15.5t-11.5 12t-5.5 17.5q0 14 10.5 24t21.5 10q18 0 43 -25l145 -144h-35z" />
    <glyph glyph-name="oacute.sc" unicode="&#xf7f3;" horiz-adv-x="519" 
d="M40 222q0 92 60 161t160 69t159.5 -69t59.5 -161q0 -94 -61.5 -162t-157.5 -68t-158 68t-62 162zM260 436q-124 0 -124 -214t124 -214q123 0 123 214t-123 214zM181 486l145 144q25 25 43 25q11 0 21.5 -10t10.5 -24q0 -10 -5.5 -17.5t-11.5 -12t-23 -15.5l-145 -90h-35z
" />
    <glyph glyph-name="ocircumflex.sc" unicode="&#xf7f4;" horiz-adv-x="519" 
d="M40 222q0 92 60 161t160 69t159.5 -69t59.5 -161q0 -94 -61.5 -162t-157.5 -68t-158 68t-62 162zM260 436q-124 0 -124 -214t124 -214q123 0 123 214t-123 214zM110 486l122 169h56l122 -169h-33l-117 106l-117 -106h-33z" />
    <glyph glyph-name="otilde.sc" unicode="&#xf7f5;" horiz-adv-x="519" 
d="M40 222q0 92 60 161t160 69t159.5 -69t59.5 -161q0 -94 -61.5 -162t-157.5 -68t-158 68t-62 162zM260 436q-124 0 -124 -214t124 -214q123 0 123 214t-123 214zM397 612h26q-13 -44 -39.5 -73t-68.5 -29q-32 0 -74 24q-43 24 -63 24q-40 0 -55 -48h-26q13 44 39.5 73
t68.5 29q32 0 74 -24q43 -24 63 -24q40 0 55 48z" />
    <glyph glyph-name="odieresis.sc" unicode="&#xf7f6;" horiz-adv-x="519" 
d="M40 222q0 92 60 161t160 69t159.5 -69t59.5 -161q0 -94 -61.5 -162t-157.5 -68t-158 68t-62 162zM260 436q-124 0 -124 -214t124 -214q123 0 123 214t-123 214zM354 596q18 0 31.5 -13.5t13.5 -31.5t-13.5 -31.5t-31.5 -13.5q-19 0 -32 13.5t-13 31.5t13 31.5t32 13.5z
M166 596q18 0 31.5 -13.5t13.5 -31.5t-13.5 -31.5t-31.5 -13.5q-19 0 -32 13.5t-13 31.5t13 31.5t32 13.5z" />
    <glyph glyph-name="oslash.sc" unicode="&#xf7f8;" horiz-adv-x="519" 
d="M150 104l214 250q-27 82 -104 82q-124 0 -124 -214q0 -68 14 -118zM369 340l-213 -250q27 -82 104 -82q123 0 123 214q0 68 -14 118zM61 0l47 55q-68 65 -68 167q0 92 60 161t160 69q84 0 142 -53l45 53l11 -8l-46 -54q67 -69 67 -168q0 -94 -61.5 -162t-157.5 -68
q-83 0 -142 54l-46 -54z" />
    <glyph glyph-name="ugrave.sc" unicode="&#xf7f9;" horiz-adv-x="519" 
d="M9 428v16h243v-16h-80v-290q0 -130 113 -130q56 0 92 29t36 89v261q0 20 -8.5 30.5t-33.5 10.5h-45v16h177v-16h-32q-25 0 -33.5 -10.5t-8.5 -30.5v-254q0 -141 -164 -141q-51 0 -86.5 10t-52.5 23t-26.5 35t-10.5 35t-1 36v297h-79zM304 486l-145 90q-17 11 -23 15.5
t-11.5 12t-5.5 17.5q0 14 10.5 24t21.5 10q18 0 43 -25l145 -144h-35z" />
    <glyph glyph-name="uacute.sc" unicode="&#xf7fa;" horiz-adv-x="519" 
d="M9 428v16h243v-16h-80v-290q0 -130 113 -130q56 0 92 29t36 89v261q0 20 -8.5 30.5t-33.5 10.5h-45v16h177v-16h-32q-25 0 -33.5 -10.5t-8.5 -30.5v-254q0 -141 -164 -141q-51 0 -86.5 10t-52.5 23t-26.5 35t-10.5 35t-1 36v297h-79zM206 486l145 144q25 25 43 25
q11 0 21.5 -10t10.5 -24q0 -10 -5.5 -17.5t-11.5 -12t-23 -15.5l-145 -90h-35z" />
    <glyph glyph-name="ucircumflex.sc" unicode="&#xf7fb;" horiz-adv-x="519" 
d="M9 428v16h243v-16h-80v-290q0 -130 113 -130q56 0 92 29t36 89v261q0 20 -8.5 30.5t-33.5 10.5h-45v16h177v-16h-32q-25 0 -33.5 -10.5t-8.5 -30.5v-254q0 -141 -164 -141q-51 0 -86.5 10t-52.5 23t-26.5 35t-10.5 35t-1 36v297h-79zM110 486l122 169h56l122 -169h-33
l-117 106l-117 -106h-33z" />
    <glyph glyph-name="udieresis.sc" unicode="&#xf7fc;" horiz-adv-x="519" 
d="M9 428v16h243v-16h-80v-290q0 -130 113 -130q56 0 92 29t36 89v261q0 20 -8.5 30.5t-33.5 10.5h-45v16h177v-16h-32q-25 0 -33.5 -10.5t-8.5 -30.5v-254q0 -141 -164 -141q-51 0 -86.5 10t-52.5 23t-26.5 35t-10.5 35t-1 36v297h-79zM360 596q18 0 31.5 -13.5t13.5 -31.5
t-13.5 -31.5t-31.5 -13.5q-19 0 -32 13.5t-13 31.5t13 31.5t32 13.5zM172 596q18 0 31.5 -13.5t13.5 -31.5t-13.5 -31.5t-31.5 -13.5q-19 0 -32 13.5t-13 31.5t13 31.5t32 13.5z" />
    <glyph glyph-name="yacute.sc" unicode="&#xf7fd;" horiz-adv-x="444" 
d="M184 16v161l-133 251h-56v16h210v-16h-52l111 -223l97 185q7 15 7 25q0 7 -6 10t-24 3h-15v16h126v-16h-28q-11 0 -20 -6.5t-13 -13t-12 -21.5l-108 -204v-167h83v-16h-250v16h83zM168 486l145 144q25 25 43 25q11 0 21.5 -10t10.5 -24q0 -10 -5.5 -17.5t-11.5 -12
t-23 -15.5l-145 -90h-35z" />
    <glyph glyph-name="thorn.sc" unicode="&#xf7fe;" horiz-adv-x="444" 
d="M96 16v412h-80v16h247v-16h-83v-64h78q67 0 110.5 -31t43.5 -95q0 -61 -49.5 -93.5t-113.5 -32.5q-29 0 -69 14v-110h83v-16h-247v16h80zM180 348v-206q38 -14 60 -14q82 0 82 110q0 54 -18.5 82t-69.5 28h-54z" />
    <glyph glyph-name="ydieresis.sc" unicode="&#xf7ff;" horiz-adv-x="444" 
d="M184 16v161l-133 251h-56v16h210v-16h-52l111 -223l97 185q7 15 7 25q0 7 -6 10t-24 3h-15v16h126v-16h-28q-11 0 -20 -6.5t-13 -13t-12 -21.5l-108 -204v-167h83v-16h-250v16h83zM326 596q18 0 31.5 -13.5t13.5 -31.5t-13.5 -31.5t-31.5 -13.5q-19 0 -32 13.5t-13 31.5
t13 31.5t32 13.5zM138 596q18 0 31.5 -13.5t13.5 -31.5t-13.5 -31.5t-31.5 -13.5q-19 0 -32 13.5t-13 31.5t13 31.5t32 13.5z" />
    </font>
</defs>
</svg>
