<?xml version="1.0" standalone="no"?>
<!DOCTYPE svg PUBLIC "-//W3C//DTD SVG 1.1//EN" "http://www.w3.org/Graphics/SVG/1.1/DTD/svg11.dtd" >
<svg>
<metadata>
Created by FontForge 20110222 at Thu Sep  5 07:05:05 2013
 By Orthosie Webhosting
Copyright 1994, 2003 Monotype Imaging, Inc. All rights reserved.
</metadata>
<defs>
<font id="SackersGothicStdLight" horiz-adv-x="889" >
  <font-face 
    font-family="SackersGothicStdLight"
    font-weight="300"
    font-stretch="normal"
    units-per-em="1000"
    panose-1="2 11 3 4 2 2 2 6 2 4"
    ascent="760"
    descent="-240"
    x-height="516"
    cap-height="745"
    bbox="-175 -253 1697 1029"
    underline-thickness="50"
    underline-position="-50"
    unicode-range="U+0020-FB06"
  />
<missing-glyph horiz-adv-x="500" 
d="M12 0v665h475v-665h-475zM88 618l162 -243l161 243h-323zM60 575v-484l40 61l80 120l41 61zM440 575l-162 -242l162 -243v485zM411 48l-161 242l-162 -242h323z" />
    <glyph glyph-name="fi" unicode="fi" horiz-adv-x="960" 
d="M812 0h-68v516h68v-516zM567 448h-380v-146h235v-69h-235v-233h-67v516h447v-68z" />
    <glyph glyph-name="fl" unicode="fl" horiz-adv-x="1194" 
d="M1147 0h-404v516h67v-448h337v-68zM567 448h-380v-146h235v-69h-235v-233h-67v516h447v-68z" />
    <glyph glyph-name=".notdef" horiz-adv-x="500" 
d="M12 0v665h475v-665h-475zM88 618l162 -243l161 243h-323zM60 575v-484l40 61l80 120l41 61zM440 575l-162 -242l162 -243v485zM411 48l-161 242l-162 -242h323z" />
    <glyph glyph-name=".null" horiz-adv-x="0" 
 />
    <glyph glyph-name="nonmarkingreturn" horiz-adv-x="333" 
 />
    <glyph glyph-name="space" unicode=" " horiz-adv-x="370" 
 />
    <glyph glyph-name="exclam" unicode="!" horiz-adv-x="333" 
d="M213 747l-19 -569h-53l-18 569h90zM231 46q0 -26 -18.5 -44.5t-44.5 -18.5t-44.5 18.5t-18.5 44.5t18.5 45t44.5 19q27 0 45 -18.5t18 -45.5z" />
    <glyph glyph-name="quotedbl" unicode="&#x22;" horiz-adv-x="462" 
d="M358 757l-22 -253h-45l-22 253h89zM193 757l-22 -253h-45l-22 253h89z" />
    <glyph glyph-name="numbersign" unicode="#" horiz-adv-x="672" 
d="M654 474l-21 -57h-135l-53 -146h134l-21 -57h-135l-78 -215h-59l78 215h-162l-78 -215h-58l78 215h-135l21 57h135l54 146h-135l21 57h135l65 178h59l-65 -178h161l65 178h59l-65 -178h135zM439 417h-161l-55 -146h162z" />
    <glyph glyph-name="dollar" unicode="$" 
d="M777 188q0 -80 -59 -127t-146 -65q-60 -12 -106 -12v-67h-54v67q-85 0 -174 28q-51 17 -86.5 40t-85.5 67l46 49q67 -62 138 -90t162 -28v258h-59q-42 0 -80.5 8t-75 25t-58 50t-21.5 78q0 68 50.5 116t121.5 68q57 15 116 15h6v82h54v-82q78 0 141 -22.5t131 -70.5
l-43 -54q-101 72 -229 80v-226h56q41 0 83.5 -11t82 -32.5t64.5 -59t25 -84.5zM412 377v225q-37 -2 -69 -7.5t-69.5 -18.5t-59.5 -40t-22 -64q0 -51 45 -73t109 -22h66zM701 189q0 33 -17.5 57.5t-45.5 37t-57 18.5t-60 6h-55v-256q37 0 73.5 5.5t75 19.5t62.5 42.5t24 69.5
z" />
    <glyph glyph-name="percent" unicode="%" horiz-adv-x="1204" 
d="M1147 193q0 -94 -73.5 -151t-171.5 -57t-172 56.5t-74 151.5q0 94 74 150.5t172 56.5q97 0 171 -57t74 -150zM926 718l-554 -757h-81l554 757h81zM546 461q0 -94 -73.5 -151t-171.5 -57t-172 56.5t-74 151.5q0 94 74 150.5t172 56.5q97 0 171 -57t74 -150zM1073 193
q0 64 -51 103.5t-120 39.5t-120 -39.5t-51 -103.5q0 -65 50.5 -104t120.5 -39t120.5 39t50.5 104zM472 461q0 64 -51 103.5t-120 39.5t-120 -39.5t-51 -103.5q0 -65 50.5 -104t120.5 -39q69 0 119.5 39t50.5 104h1z" />
    <glyph glyph-name="ampersand" unicode="&#x26;" horiz-adv-x="870" 
d="M794 0h-96q-50 46 -74 70q-121 -89 -255 -89q-67 0 -130 21t-109.5 71t-46.5 119q0 145 205 203l-10 10q-10 10 -11 11.5t-9.5 10.5t-10.5 12t-8.5 11.5t-8.5 13t-6.5 12.5t-5.5 14t-2.5 14t-1.5 16q0 38 21.5 68t55 47t70 25.5t70.5 8.5q62 0 101 -11t100 -41l-29 -61
q-54 25 -89 34t-88 9q-27 0 -57.5 -6.5t-58.5 -25t-28 -46.5q0 -25 47 -69l296 -288q54 49 100 128l58 -37q-45 -74 -107 -140zM573 120l-229 219q-28 -6 -49 -12t-50 -18.5t-47.5 -26.5t-32 -37t-13.5 -50q0 -38 22 -67.5t56.5 -45.5t70.5 -24t71 -8q110 0 201 70z" />
    <glyph glyph-name="quotesingle" unicode="'" horiz-adv-x="333" 
d="M216 757l-22 -253h-45l-22 253h89z" />
    <glyph glyph-name="parenleft" unicode="(" horiz-adv-x="426" 
d="M347 734q-61 -43 -120 -147.5t-59 -215.5q0 -104 57.5 -210t114.5 -151l-33 -30q-93 76 -152 180.5t-59 213.5q0 113 63.5 221t162.5 170z" />
    <glyph glyph-name="parenright" unicode=")" horiz-adv-x="426" 
d="M327 371q0 -113 -63.5 -221t-162.5 -170l-25 31q61 43 120 147.5t59 215.5q0 104 -57.5 210t-114.5 151l33 30q93 -76 152 -180.5t59 -213.5z" />
    <glyph glyph-name="asterisk" unicode="*" horiz-adv-x="593" 
d="M466 495l-22 -39l-122 69v-140h-45v140l-126 -71l-24 40l125 71l-123 70l22 39l125 -69v142h45v-142l121 70l24 -40l-124 -70z" />
    <glyph glyph-name="plus" unicode="+" 
d="M675 202h-202v-202h-57v202h-202v57h202v202h57v-202h202v-57z" />
    <glyph glyph-name="comma" unicode="," horiz-adv-x="389" 
d="M296 0q0 -52 -22 -85t-65 -66q-17 -14 -24 -14q-5 0 -10 6t-5 13q0 5 18 16q23 16 41.5 41.5t18.5 49.5t-34 24q-26 0 -42.5 19t-16.5 46q0 22 17.5 37t40.5 15q37 0 60 -31.5t23 -70.5z" />
    <glyph glyph-name="hyphen" unicode="-" horiz-adv-x="610" 
d="M470 221h-330v71h330v-71z" />
    <glyph glyph-name="period" unicode="." horiz-adv-x="370" 
d="M249 46q0 -26 -19 -44.5t-45 -18.5t-45 18.5t-19 44.5t18.5 45t44.5 19q27 0 46 -19t19 -45z" />
    <glyph glyph-name="slash" unicode="/" horiz-adv-x="630" 
d="M558 747l-445 -767h-67l445 767h67z" />
    <glyph glyph-name="zero" unicode="0" 
d="M831 327q0 -106 -54 -185.5t-140.5 -118.5t-191.5 -39q-100 0 -187 39t-143 117.5t-56 180.5q0 166 106 256.5t274 90.5q104 0 192 -38.5t144 -117.5t56 -185zM762 328q0 89 -47 152t-119 91.5t-160 28.5q-127 0 -217.5 -73t-90.5 -197q0 -131 91 -204t225 -73t226 72.5
t92 202.5z" />
    <glyph glyph-name="one" unicode="1" horiz-adv-x="593" 
d="M330 0h-67v654h67v-654z" />
    <glyph glyph-name="two" unicode="2" 
d="M747 0h-600q-2 22 -2 32q0 129 72.5 226t197.5 109l153 15q47 5 78 29t31 68q0 35 -21.5 60.5t-56 38.5t-67.5 18.5t-65 5.5q-78 0 -139.5 -17t-129.5 -56l-32 60q75 43 143.5 62.5t152.5 19.5q49 0 95.5 -9.5t90.5 -30t71 -59.5t27 -92q0 -76 -55.5 -120.5t-135.5 -50.5
q-20 -2 -60 -4.5t-60 -3.5q-93 -7 -151.5 -72t-66.5 -160h530v-69z" />
    <glyph glyph-name="three" unicode="3" 
d="M796 185q0 -49 -26.5 -86t-65.5 -58.5t-91 -34.5t-95.5 -17.5t-86.5 -4.5q-93 0 -182 24q-75 21 -150 73l36 58q131 -87 295 -87q74 0 126 10q26 4 52 12.5t55 22t47 35.5t18 49q0 37 -25 63.5t-65 39t-75.5 18t-69.5 5.5h-89v70h89q30 0 59.5 4.5t61 16t51 34.5t19.5 55
q0 39 -40.5 63.5t-89.5 36.5q-47 10 -100 10q-71 0 -123.5 -14.5t-123.5 -50.5l-31 60q82 44 136.5 58.5t143.5 14.5q69 0 132 -16q68 -18 116 -59t48 -103q0 -83 -91 -140q135 -53 135 -162z" />
    <glyph glyph-name="four" unicode="4" 
d="M816 174h-166v-174h-68v174h-473l-34 78l507 402h68v-410h166v-70zM582 244v320l-402 -320h402z" />
    <glyph glyph-name="five" unicode="5" 
d="M785 208q0 -76 -55.5 -127t-135.5 -75q-72 -22 -160 -22q-180 0 -328 94l38 55q87 -48 145 -64.5t151 -16.5q56 0 110 12q64 15 115 51t51 92q0 40 -25 70.5t-64 46.5t-78 24t-75 8q-76 0 -140 -19.5t-152 -60.5l-46 36v342h595v-68h-527v-223q87 34 143 47.5t133 13.5
q72 0 132 -20q73 -24 123 -75t50 -121z" />
    <glyph glyph-name="six" unicode="6" 
d="M809 199q0 -51 -34.5 -93.5t-79 -67t-95.5 -37.5q-62 -17 -134 -17q-103 0 -190 37t-143 114.5t-56 182.5q0 78 34.5 144.5t91.5 110.5t128.5 69t146.5 25q88 0 149.5 -23t152.5 -79l-39 -54q-68 44 -127.5 66t-130.5 22q-89 0 -164 -32.5t-124 -99.5t-50 -157
q5 3 14 8.5t16.5 10t14.5 8.5q125 67 297 67q73 0 137 -17q78 -21 131.5 -68t53.5 -120zM740 202q0 47 -44.5 77.5t-99.5 44.5q-56 13 -118 13q-180 0 -319 -103q39 -93 119.5 -137.5t187.5 -44.5q60 0 113 13q60 16 110.5 51t50.5 86z" />
    <glyph glyph-name="seven" unicode="7" 
d="M750 595l-435 -595h-85l429 586h-518v68h571z" />
    <glyph glyph-name="eight" unicode="8" 
d="M796 182q0 -61 -35 -103t-93 -61t-110.5 -26.5t-110.5 -7.5q-56 0 -110 7.5t-113.5 27t-96 61t-36.5 101.5q0 59 39.5 103t99.5 65q-88 53 -88 141q0 54 29.5 92t79.5 55.5t96.5 24.5t98.5 7q53 0 98.5 -6.5t95.5 -24t79.5 -55t29.5 -92.5q0 -92 -90 -142
q64 -29 100.5 -67.5t36.5 -99.5zM682 487q0 114 -253 114q-33 0 -65.5 -4.5t-70 -15.5t-60.5 -35.5t-23 -59.5q0 -106 243 -106q34 0 66 3.5t72.5 13t65.5 33t25 57.5zM728 180q0 29 -16 51.5t-43.5 36t-57.5 23t-67 13.5t-62 5.5t-51 1.5q-37 0 -76.5 -5t-87 -17t-78 -39.5
t-30.5 -66.5q0 -41 32.5 -69t85 -40t93 -16.5t80.5 -4.5q30 0 60 2t71.5 9.5t72 20.5t52.5 37.5t22 57.5z" />
    <glyph glyph-name="nine" unicode="9" 
d="M809 335q0 -105 -60 -187t-152 -123.5t-195 -41.5q-85 0 -146.5 22.5t-146.5 75.5l39 55q76 -47 129 -66t129 -19q136 0 235.5 81t99.5 214q-154 -99 -345 -99q-52 0 -103 10t-102 31.5t-82.5 63t-31.5 97.5q0 40 19.5 74.5t52.5 59t68 41.5t73 27q64 17 137 17
q156 0 269 -90.5t113 -242.5zM725 423q-36 89 -116 133t-182 44q-56 0 -110 -12q-64 -15 -118.5 -51.5t-54.5 -91.5q0 -45 43 -74.5t95 -42.5t111 -13q87 0 182 28t150 80z" />
    <glyph glyph-name="colon" unicode=":" horiz-adv-x="370" 
d="M248 428q0 -26 -18.5 -44.5t-44.5 -18.5t-44.5 18.5t-18.5 44.5q0 27 18.5 45t45.5 18q26 0 44 -18.5t18 -44.5zM246 46q0 -26 -18 -44.5t-44 -18.5t-44 18.5t-18 43.5q0 26 18 44.5t44 18.5t44 -18t18 -44z" />
    <glyph glyph-name="semicolon" unicode=";" horiz-adv-x="389" 
d="M248 428q0 -26 -18.5 -44.5t-44.5 -18.5t-44.5 18.5t-18.5 44.5q0 27 18.5 45t45.5 18q26 0 44 -18.5t18 -44.5zM263 0q0 -52 -22 -85t-65 -66q-18 -14 -24 -14q-5 0 -10 6t-5 13q0 5 18 16q23 16 41.5 41.5t18.5 49.5t-34 24q-26 0 -42.5 19t-16.5 46q0 22 17.5 37
t40.5 15q37 0 60 -31.5t23 -70.5z" />
    <glyph glyph-name="less" unicode="&#x3c;" 
d="M652 18l-415 182v61l415 182v-63l-343 -149l343 -150v-63z" />
    <glyph glyph-name="equal" unicode="=" 
d="M675 272h-461v57h461v-57zM675 132h-461v57h461v-57z" />
    <glyph glyph-name="greater" unicode="&#x3e;" 
d="M652 200l-415 -182v63l343 149l-343 150v63l415 -182v-61z" />
    <glyph glyph-name="question" unicode="?" horiz-adv-x="556" 
d="M480 575q0 -102 -109 -185l-101 -77q-24 -18 -24 -56v-75h-66v75q0 35 7 56t12.5 27t23.5 19l105 81q38 30 57 59.5t19 70.5q0 39 -14.5 65.5t-42.5 39t-56.5 17t-67.5 4.5q-80 0 -167 -24v70q72 19 176 19q51 0 92.5 -9t78 -28.5t57 -57.5t20.5 -91zM277 46
q0 -26 -19 -44.5t-45 -18.5t-44.5 18.5t-18.5 44.5t18.5 45t44.5 19t45 -19t19 -45z" />
    <glyph glyph-name="at" unicode="@" horiz-adv-x="1044" 
d="M960 337q0 -96 -58 -154t-130 -58q-47 0 -81.5 21t-47.5 49q-41 -60 -146 -60q-63 0 -109.5 28.5t-46.5 89.5q0 33 14.5 56t33.5 34t52 17t53.5 7t54.5 1h78q0 30 -7 49q-17 40 -94 40q-86 0 -100 -56h-64q16 109 174 109q84 0 121.5 -39t37.5 -124v-101q0 -28 21 -48.5
t57 -20.5q51 0 86 42t35 120q0 100 -54.5 172.5t-139.5 106.5t-188 34q-96 0 -176.5 -36.5t-132 -111.5t-51.5 -175q0 -155 107 -243t262 -88q123 0 200 58l36 -48q-91 -73 -235 -73q-114 0 -212.5 44.5t-162 134t-63.5 205.5q0 127 57 218t153 134.5t221 43.5
q127 0 225 -39t159 -126t61 -213zM627 302v14h-71q-55 0 -82 -2q-35 -2 -52.5 -16t-17.5 -47t27.5 -47.5t66.5 -14.5q59 0 94 28t35 85z" />
    <glyph glyph-name="A" unicode="A" horiz-adv-x="833" 
d="M815 0h-76l-131 266h-382l-131 -266h-76l365 746h69zM577 334l-158 326l-159 -326h317z" />
    <glyph glyph-name="B" unicode="B" horiz-adv-x="907" 
d="M806 207q0 -100 -79 -162q-36 -28 -72.5 -36.5t-92.5 -8.5h-439v745h439q89 0 149.5 -56t60.5 -144q0 -84 -75 -157q109 -64 109 -181zM704 546q0 61 -40 95.5t-102 34.5h-371v-260h371q61 0 101.5 35t40.5 95zM737 207q0 72 -49.5 106t-125.5 34h-371v-278h371
q31 0 48.5 1.5t41 9.5t40.5 24q45 39 45 103z" />
    <glyph glyph-name="C" unicode="C" horiz-adv-x="926" 
d="M851 136q-164 -153 -364 -153q-169 0 -285.5 110.5t-116.5 278.5q0 172 116.5 281t289.5 109q110 0 196.5 -34t160.5 -111l-46 -49q-123 126 -305 126q-147 0 -245.5 -88.5t-98.5 -233.5q0 -139 98.5 -229.5t239.5 -90.5q168 0 313 134z" />
    <glyph glyph-name="D" unicode="D" horiz-adv-x="926" 
d="M835 374q0 -164 -104 -269t-256 -105h-353v746h353q163 0 261.5 -102t98.5 -270zM766 372q0 146 -81 226t-210 80h-284v-610h284q125 0 208 79t83 225z" />
    <glyph glyph-name="E" unicode="E" horiz-adv-x="852" 
d="M772 0h-639v745h615v-70h-548v-256h299v-68h-299v-283h572v-68z" />
    <glyph glyph-name="F" unicode="F" horiz-adv-x="779" 
d="M742 677h-542v-271h344v-69h-344v-337h-67v745h609v-68z" />
    <glyph glyph-name="G" unicode="G" horiz-adv-x="907" 
d="M822 201q0 -78 -63.5 -130.5t-147.5 -73.5q-61 -15 -126 -15q-174 0 -293 109t-119 281q0 168 122 278.5t299 110.5q193 0 310 -135l-44 -49q-109 116 -266 116q-150 0 -251 -94.5t-101 -227.5q0 -146 100 -233t248 -87q52 0 100 12q60 15 112 50.5t52 86.5v130h-269v68
h337v-197z" />
    <glyph glyph-name="H" unicode="H" horiz-adv-x="1000" 
d="M828 0h-67v355h-521v-355h-68v746h68v-324h521v324h67v-746z" />
    <glyph glyph-name="I" unicode="I" horiz-adv-x="370" 
d="M220 0h-66v745h66v-745z" />
    <glyph glyph-name="J" unicode="J" horiz-adv-x="815" 
d="M682 290q0 -149 -88 -228t-239 -79q-142 0 -223 71q-31 27 -49.5 56t-39.5 76l58 30q38 -69 60 -94q63 -72 193 -72q122 0 191 60t69 180v456h68v-456z" />
    <glyph glyph-name="K" unicode="K" horiz-adv-x="833" 
d="M783 0h-82l-282 422l-228 -227v-195h-69v745h69v-454l457 454h95l-273 -272z" />
    <glyph glyph-name="L" unicode="L" horiz-adv-x="722" 
d="M683 0h-555v745h68v-676h487v-69z" />
    <glyph glyph-name="M" unicode="M" horiz-adv-x="1037" 
d="M888 0h-68v612l-302 -507l-301 507v-612h-67v746h67l301 -509l305 509h65v-746z" />
    <glyph glyph-name="N" unicode="N" horiz-adv-x="981" 
d="M822 0h-69l-525 638v-638h-68v745h68l526 -636v636h68v-745z" />
    <glyph glyph-name="O" unicode="O" horiz-adv-x="963" 
d="M883 372q0 -166 -116 -277t-283 -111q-169 0 -286.5 111t-117.5 279q0 165 117 276t282 111q169 0 286.5 -110.5t117.5 -278.5zM815 370q0 138 -96.5 231t-235.5 93q-138 0 -237 -90.5t-99 -227.5q0 -141 96 -232.5t238 -91.5q140 0 237 89.5t97 228.5z" />
    <glyph glyph-name="P" unicode="P" horiz-adv-x="870" 
d="M776 530q0 -112 -83 -175q-48 -36 -168 -36h-330v-319h-69v745h432q49 0 83 -9t65 -37q70 -61 70 -169zM707 532q0 145 -149 145h-363v-289h330q91 0 125 21q57 35 57 123z" />
    <glyph glyph-name="Q" unicode="Q" horiz-adv-x="1000" 
d="M900 373q0 -153 -102 -264q-29 -31 -76 -68l76 -78l-62 -36l-78 82q-89 -29 -161 -29q-165 0 -281.5 113.5t-116.5 277.5q0 167 116.5 279t284.5 112q167 0 283.5 -111.5t116.5 -277.5zM832 372q0 140 -96 230.5t-237 90.5q-139 0 -235.5 -91t-96.5 -229
q0 -144 99.5 -234t245.5 -90q52 0 91 13l-70 73l64 36l75 -78q160 101 160 279z" />
    <glyph glyph-name="R" unicode="R" 
d="M800 531q0 -49 -22.5 -98.5t-60.5 -76.5q-51 -36 -122 -41l189 -315h-79l-188 315h-325v-315h-70v746h439q55 0 81 -6t60 -24q44 -24 71 -78.5t27 -106.5zM732 534q0 83 -62 120q-37 23 -139 23h-339v-294h339q61 0 91.5 5.5t52.5 21.5q57 42 57 124z" />
    <glyph glyph-name="S" unicode="S" horiz-adv-x="833" 
d="M779 214q0 -65 -35 -112.5t-92.5 -72t-115.5 -35.5t-118 -11q-101 0 -190 32q-52 19 -89.5 46t-86.5 75l47 49q71 -73 146.5 -103t178.5 -30q34 0 68.5 3.5t75 14.5t71 28t51 46.5t20.5 68.5q0 45 -28.5 78t-64.5 47t-75 17q-7 1 -197 4q-62 1 -113 17t-88.5 58
t-37.5 105q0 78 55 130t137 75q64 18 141 18q154 0 297 -107l-42 -51q-77 49 -133.5 70t-133.5 21q-56 0 -96 -10q-62 -14 -109.5 -51t-47.5 -94q0 -108 171 -113q10 0 90.5 -2t112.5 -4q100 -8 165.5 -62t65.5 -145z" />
    <glyph glyph-name="T" unicode="T" horiz-adv-x="759" 
d="M697 678h-282v-678h-68v678h-286v68h636v-68z" />
    <glyph glyph-name="U" unicode="U" horiz-adv-x="963" 
d="M813 269q0 -147 -92.5 -217t-244.5 -70q-146 0 -235 72.5t-89 214.5v476h68v-476q0 -219 264 -219q70 0 133.5 22.5t97.5 71.5q30 43 30 125v476h68v-476z" />
    <glyph glyph-name="V" unicode="V" horiz-adv-x="833" 
d="M813 745l-366 -745h-66l-359 745h72l320 -659l324 659h75z" />
    <glyph glyph-name="W" unicode="W" horiz-adv-x="1000" 
d="M980 745l-241 -745h-68l-171 613l-168 -613h-68l-242 745h72l203 -619l169 619h69l172 -619l201 619h72z" />
    <glyph glyph-name="X" unicode="X" horiz-adv-x="778" 
d="M757 0h-88l-279 348l-280 -348h-88l324 404l-276 342h85l235 -288l229 288h91l-277 -342z" />
    <glyph glyph-name="Y" unicode="Y" horiz-adv-x="778" 
d="M759 745l-333 -420v-325h-69v325l-339 420h89l285 -354l281 354h86z" />
    <glyph glyph-name="Z" unicode="Z" horiz-adv-x="685" 
d="M672 0h-616l-37 72l554 605h-513v68h568l39 -71l-557 -603h562v-71z" />
    <glyph glyph-name="bracketleft" unicode="[" horiz-adv-x="426" 
d="M301 0h-156v746h156v-55h-89v-636h89v-55z" />
    <glyph glyph-name="backslash" unicode="\" horiz-adv-x="630" 
d="M558 -20h-67l-445 767h67z" />
    <glyph glyph-name="bracketright" unicode="]" horiz-adv-x="426" 
d="M281 0h-156v55h89v636h-89v55h156v-746z" />
    <glyph glyph-name="asciicircum" unicode="^" 
d="M653 340h-57l-151 278l-152 -278h-57l180 328h57z" />
    <glyph glyph-name="underscore" unicode="_" horiz-adv-x="500" 
d="M500 -125h-500v49h500v-49z" />
    <glyph glyph-name="grave" unicode="`" horiz-adv-x="333" 
d="M245 575h-77l-98 107h107z" />
    <glyph glyph-name="a" unicode="a" horiz-adv-x="685" 
d="M665 0h-71l-72 129h-357l-73 -129h-71l294 516h61zM484 197l-139 248l-141 -248h280z" />
    <glyph glyph-name="b" unicode="b" horiz-adv-x="741" 
d="M631 154q0 -154 -184 -154h-336v516h336q72 0 116 -34.5t44 -104.5q0 -51 -42 -98q35 -29 50.5 -56t15.5 -69zM539 378q0 70 -90 70h-270v-141h268q44 0 68 15t24 56zM564 149q0 89 -117 89h-268v-169h268q27 0 45 2.5t36 10t27 24.5t9 43z" />
    <glyph glyph-name="c" unicode="c" horiz-adv-x="741" 
d="M668 432l-39 -57q-109 90 -233 90q-100 0 -170.5 -55.5t-70.5 -152.5q0 -68 39 -116.5t96 -69t124 -20.5q121 0 224 73l27 -62q-103 -80 -253 -80q-86 0 -158.5 30t-119.5 94.5t-47 151.5q0 124 90 199.5t217 75.5q157 0 274 -101z" />
    <glyph glyph-name="d" unicode="d" horiz-adv-x="759" 
d="M655 254q0 -115 -69 -184.5t-184 -69.5h-290v516h290q54 0 90 -10.5t72 -41.5q91 -80 91 -210zM588 255q0 88 -59 149q-27 27 -54.5 35.5t-70.5 8.5h-225v-380h223q87 0 136.5 50t49.5 137z" />
    <glyph glyph-name="e" unicode="e" horiz-adv-x="685" 
d="M585 0h-465v516h454v-68h-387v-150h222v-68h-222v-161h398v-69z" />
    <glyph glyph-name="f" unicode="f" horiz-adv-x="631" 
d="M567 448h-380v-146h235v-69h-235v-233h-67v516h447v-68z" />
    <glyph glyph-name="g" unicode="g" horiz-adv-x="741" 
d="M652 82q-50 -46 -120 -71.5t-141 -25.5q-130 0 -222 73t-92 200q0 126 93.5 200.5t222.5 74.5q71 0 127 -19.5t115 -62.5l-37 -57q-54 37 -100 54t-105 17q-100 0 -174.5 -54.5t-74.5 -151.5q0 -98 72 -152t173 -54q109 0 195 60v101h-170v69h238v-201z" />
    <glyph glyph-name="h" unicode="h" horiz-adv-x="796" 
d="M645 0h-68v232h-357v-232h-67v516h67v-216h357v216h68v-516z" />
    <glyph glyph-name="i" unicode="i" horiz-adv-x="370" 
d="M222 0h-68v516h68v-516z" />
    <glyph glyph-name="j" unicode="j" horiz-adv-x="648" 
d="M535 183q0 -90 -73.5 -144t-167.5 -54q-167 0 -231 139l56 38q28 -57 69 -83t104 -26q67 0 121.5 34.5t54.5 97.5v331h67v-333z" />
    <glyph glyph-name="k" unicode="k" horiz-adv-x="667" 
d="M609 0h-86l-202 278l-137 -127v-151h-69v516h69v-272l295 272h99l-207 -191z" />
    <glyph glyph-name="l" unicode="l" horiz-adv-x="574" 
d="M527 0h-404v516h67v-448h337v-68z" />
    <glyph glyph-name="m" unicode="m" horiz-adv-x="870" 
d="M721 0h-67v395l-218 -327l-217 327v-395h-67v516h69l215 -327l218 327h67v-516z" />
    <glyph glyph-name="n" unicode="n" horiz-adv-x="796" 
d="M648 0h-67l-363 414v-414h-67v516h67l363 -413v413h67v-516z" />
    <glyph glyph-name="o" unicode="o" horiz-adv-x="796" 
d="M715 253q0 -126 -94 -199t-224 -73q-131 0 -223.5 76t-92.5 204q0 122 94 197.5t219 75.5q129 0 225 -77.5t96 -203.5zM647 253q0 99 -75.5 155.5t-177.5 56.5q-97 0 -171.5 -55.5t-74.5 -149.5q0 -99 74.5 -155t176.5 -56q100 0 174 53.5t74 150.5z" />
    <glyph glyph-name="p" unicode="p" horiz-adv-x="704" 
d="M628 353q0 -81 -50 -120t-133 -39h-249v-194h-68v516h317q83 0 133 -41t50 -122zM561 352q0 53 -30.5 74t-85.5 21h-249v-185h249q55 0 85.5 19.5t30.5 70.5z" />
    <glyph glyph-name="q" unicode="q" horiz-adv-x="815" 
d="M722 257q0 -146 -132 -228l59 -63l-66 -28l-59 61q-64 -16 -118 -16q-129 0 -222.5 75.5t-93.5 201.5q0 125 92.5 201t219.5 76q131 0 225.5 -76t94.5 -204zM656 257q0 98 -76 154.5t-177 56.5t-173 -55.5t-72 -153.5q0 -99 77 -154t180 -55q29 0 51 6l-46 52l67 29
l54 -56q115 63 115 176z" />
    <glyph glyph-name="r" unicode="r" horiz-adv-x="741" 
d="M659 0h-85l-147 209h-230v-209h-67v516h321q84 0 140.5 -37t56.5 -116q0 -60 -39 -99t-101 -50zM580 363q0 85 -129 85h-254v-172h254q129 0 129 87z" />
    <glyph glyph-name="s" unicode="s" horiz-adv-x="685" 
d="M622 145q0 -46 -23 -79.5t-61 -51t-78 -25.5t-83 -8q-86 0 -170 23q-46 13 -75.5 27t-69.5 42l33 62q24 -18 36 -26q96 -61 240 -61q27 0 54.5 3.5t58.5 13t50 30t19 49.5q0 44 -35 65t-84 23q-53 2 -155 4q-71 2 -124.5 38.5t-53.5 104.5q0 42 21 74t56 48.5t72.5 24.5
t76.5 8q158 0 265 -72l-31 -61q-65 40 -109.5 52t-121.5 12q-24 0 -48 -3t-51.5 -11.5t-44.5 -26.5t-17 -44q0 -38 32.5 -56.5t73.5 -19.5l144 -3q51 -1 95 -16t76 -51.5t32 -88.5z" />
    <glyph glyph-name="t" unicode="t" horiz-adv-x="593" 
d="M539 449h-211v-449h-66v449h-208v67h485v-67z" />
    <glyph glyph-name="u" unicode="u" horiz-adv-x="796" 
d="M650 201q0 -111 -67.5 -163t-182.5 -52q-116 0 -183.5 51.5t-67.5 163.5v315h68v-315q0 -82 49 -114.5t136 -32.5q181 0 181 147v315h67v-315z" />
    <glyph glyph-name="v" unicode="v" horiz-adv-x="667" 
d="M649 516l-282 -516h-68l-278 516h77l236 -438l237 438h78z" />
    <glyph glyph-name="w" unicode="w" horiz-adv-x="833" 
d="M816 516l-193 -516h-68l-135 404l-138 -404h-67l-198 516h73l156 -408l141 408h67l136 -408l153 408h73z" />
    <glyph glyph-name="x" unicode="x" horiz-adv-x="648" 
d="M634 0h-93l-216 226l-216 -226h-91l261 277l-227 239h91l182 -191l181 191h94l-229 -239z" />
    <glyph glyph-name="y" unicode="y" horiz-adv-x="574" 
d="M558 516l-235 -260v-256h-69v256l-234 260h89l180 -198l179 198h90z" />
    <glyph glyph-name="z" unicode="z" horiz-adv-x="537" 
d="M518 0h-458l-40 62l387 385h-361v69h425l39 -61l-387 -386h395v-69z" />
    <glyph glyph-name="braceleft" unicode="{" horiz-adv-x="426" 
d="M320 -16q-90 0 -122 28t-32 98v158q0 47 -17.5 65.5t-62.5 24.5v37q47 5 63.5 22.5t16.5 67.5v150q0 70 32.5 98t121.5 28v-48q-43 0 -62 -16t-19 -60v-137q0 -60 -24.5 -90t-77.5 -34q54 -7 78 -35.5t24 -87.5v-145q0 -43 19.5 -60t61.5 -17v-47z" />
    <glyph glyph-name="bar" unicode="|" horiz-adv-x="351" 
d="M204 -250h-57v1000h57v-1000z" />
    <glyph glyph-name="braceright" unicode="}" horiz-adv-x="426" 
d="M339 350q-47 -5 -63.5 -22.5t-16.5 -67.5v-150q0 -70 -32.5 -98t-121.5 -28v48q43 0 62 16t19 60v137q0 60 24.5 90t77.5 34q-54 7 -78 35.5t-24 87.5v145q0 43 -19.5 60t-61.5 17v47q91 0 122.5 -28t31.5 -98v-158q0 -47 17.5 -65.5t62.5 -24.5v-37z" />
    <glyph glyph-name="asciitilde" unicode="~" 
d="M681 237q-62 -70 -118 -70q-44 0 -122 32t-109 32q-43 0 -89 -54l-32 41q22 27 55 48.5t63 21.5q44 0 121 -32t110 -32q41 0 89 54z" />
    <glyph glyph-name="uni00A0" unicode="&#xa0;" horiz-adv-x="370" 
 />
    <glyph glyph-name="exclamdown" unicode="&#xa1;" horiz-adv-x="333" 
d="M231 697q0 -26 -18.5 -45t-44.5 -19q-27 0 -45 18.5t-18 45.5q0 26 18.5 44.5t44.5 18.5t44.5 -18.5t18.5 -44.5zM213 -4h-90l19 569h53z" />
    <glyph glyph-name="cent" unicode="&#xa2;" 
d="M733 500l-38 -57q-51 43 -98 64t-111 25v-413q116 3 217 73l27 -62q-99 -77 -244 -79v-91h-53v93q-123 14 -202 84.5t-79 189.5q0 117 80.5 191t200.5 83v92h53v-92q142 -9 247 -101zM433 122v410q-91 -9 -152 -63.5t-61 -142.5t60.5 -140.5t152.5 -63.5z" />
    <glyph glyph-name="sterling" unicode="&#xa3;" 
d="M740 475h-75q-1 61 -52 94t-115 33q-79 0 -126.5 -41.5t-47.5 -118.5v-69h198v-65h-198v-242h394v-66h-569v66h101v242h-101v65h101v75q0 111 71 165.5t186 54.5q97 0 165 -50t68 -143z" />
    <glyph glyph-name="currency" unicode="&#xa4;" horiz-adv-x="753" 
d="M601 174q-5 -5 -17.5 -18t-19.5 -20q-44 44 -67 66q-50 -40 -117 -40q-66 0 -117 40q-23 -22 -67 -66q-6 6 -18 18.5t-19 19.5q22 20 68 64q-40 56 -40 116q0 68 40 116q-10 10 -21 20.5t-25 24t-22 20.5q7 7 19 19.5t18 18.5q44 -44 67 -66q54 39 117 39q69 0 117 -39
q11 11 33.5 33t33.5 33q7 -7 19.5 -20t17.5 -18q-8 -7 -22 -20.5t-25 -24t-21 -20.5q40 -50 40 -116q0 -62 -40 -116q46 -44 68 -64zM521 355q0 60 -42.5 99.5t-97.5 39.5q-60 0 -101 -41.5t-41 -97.5q0 -57 41.5 -99t99.5 -42t99.5 41.5t41.5 99.5z" />
    <glyph glyph-name="yen" unicode="&#xa5;" 
d="M794 654l-229 -258h124v-55h-173l-52 -58v-20h225v-55h-225v-208h-68v208h-226v55h226v20l-53 58h-173v55h124l-234 258h88l282 -313l278 313h86z" />
    <glyph glyph-name="brokenbar" unicode="&#xa6;" horiz-adv-x="351" 
d="M204 325h-57v350h57v-350zM204 -175h-57v350h57v-350z" />
    <glyph glyph-name="section" unicode="&#xa7;" horiz-adv-x="593" 
d="M520 348q0 -55 -64 -97q56 -43 56 -111q0 -76 -60 -116.5t-167 -40.5q-56 0 -115.5 20t-96.5 57l25 58q84 -76 188 -76q68 0 112 22.5t44 75.5q0 17 -7.5 31t-21.5 24t-26 16t-30 13l-153 59q-117 45 -117 143q0 29 19.5 56.5t42.5 41.5q-43 35 -43 97q0 48 31 81
t72.5 46t88.5 13q53 0 110.5 -20.5t90.5 -53.5l-23 -56q-27 28 -79.5 49.5t-96.5 21.5q-48 0 -85 -18t-37 -61q0 -54 74 -82l153 -58q50 -19 82.5 -54t32.5 -81zM447 343q0 53 -69 81l-177 73q-44 -24 -44 -68q0 -55 86 -89l160 -62q19 9 31.5 27.5t12.5 37.5z" />
    <glyph glyph-name="dieresis" unicode="&#xa8;" horiz-adv-x="333" 
d="M301 583h-92v93h92v-93zM124 583h-92v93h92v-93z" />
    <glyph glyph-name="copyright" unicode="&#xa9;" horiz-adv-x="945" 
d="M862 372q0 -161 -114 -275t-275 -114q-162 0 -276 114t-114 275t114 275t275 114q162 0 276 -114t114 -275zM807 372q0 139 -97.5 236.5t-236.5 97.5t-237 -98t-98 -236t98.5 -236t235.5 -98q139 0 237 97.5t98 236.5zM676 249q-98 -92 -208 -92q-94 0 -159 62t-65 156
q0 96 65.5 157t160.5 61q121 0 204 -87l-38 -42q-69 72 -162 72q-74 0 -123.5 -44.5t-49.5 -116.5q0 -69 49.5 -114.5t119.5 -45.5q86 0 167 76z" />
    <glyph glyph-name="ordfeminine" unicode="&#xaa;" horiz-adv-x="500" 
d="M423 313h-61v35q-51 -47 -134 -47q-62 0 -107.5 27.5t-45.5 86.5q0 30 11.5 51t29 32.5t46.5 18t55 8t63 1.5h82q0 32 -8 53q-17 42 -97 42q-89 0 -102 -55h-58q13 102 170 102q83 0 119.5 -38.5t36.5 -121.5v-195zM360 479h-73q-55 0 -82 -2q-35 -3 -53 -17t-18 -47
q0 -34 28 -48.5t67 -14.5q123 0 130 114z" />
    <glyph glyph-name="guillemotleft" unicode="&#xab;" horiz-adv-x="519" 
d="M465 67h-72l-135 196l135 193h72l-116 -193zM260 67h-72l-134 196l134 193h72l-115 -193z" />
    <glyph glyph-name="logicalnot" unicode="&#xac;" 
d="M675 131l-57 -1v142h-404v57h461v-198z" />
    <glyph glyph-name="uni00AD" unicode="&#xad;" horiz-adv-x="610" 
d="M470 221h-330v71h330v-71z" />
    <glyph glyph-name="registered" unicode="&#xae;" horiz-adv-x="945" 
d="M862 372q0 -161 -114 -275t-275 -114q-162 0 -276 114t-114 275t114 275t275 114q162 0 276 -114t114 -275zM807 372q0 139 -97.5 236.5t-236.5 97.5t-237 -98t-98 -236t98.5 -236t235.5 -98q139 0 237 97.5t98 236.5zM690 467q0 -27 -13.5 -55.5t-36.5 -44.5
q-25 -16 -57 -21l106 -168h-67l-104 166h-164v-166h-59v412h251q54 0 85 -17q27 -14 43 -44.5t16 -61.5zM632 469q0 36 -29 54q-17 11 -67 11h-182v-135h192q40 0 59 12q27 20 27 58z" />
    <glyph glyph-name="macron" unicode="&#xaf;" horiz-adv-x="370" 
d="M320 600h-270v59h270v-59z" />
    <glyph glyph-name="degree" unicode="&#xb0;" horiz-adv-x="593" 
d="M410 645q0 -47 -33.5 -80t-80.5 -33q-46 0 -79.5 33t-33.5 80t33 80.5t80 33.5t80.5 -33.5t33.5 -80.5zM365 645q0 29 -20.5 49t-48.5 20t-48 -20.5t-20 -48.5t20 -48t48 -20t48.5 20t20.5 48z" />
    <glyph glyph-name="plusminus" unicode="&#xb1;" 
d="M675 232h-202v-167h-57v167h-202v57h202v172h57v-172h202v-57zM675 -57h-461v57h461v-57z" />
    <glyph glyph-name="two.superior" unicode="&#xb2;" horiz-adv-x="519" 
d="M432 545q0 -82 -103 -104q-15 -3 -44.5 -8.5t-44.5 -8.5q-82 -17 -97 -98h284v-60h-352q1 56 13.5 97t35.5 64.5t46.5 36t53.5 19.5q19 5 52.5 10t46.5 8q46 12 46 45q0 18 -12 31t-31 19t-35.5 8.5t-32.5 2.5q-43 0 -75 -12t-72 -40l-36 50q49 32 90.5 47.5t93.5 15.5
q65 0 119 -31.5t54 -91.5z" />
    <glyph glyph-name="three.superior" unicode="&#xb3;" horiz-adv-x="519" 
d="M451 381q0 -45 -32 -75.5t-73 -41.5t-85 -11q-123 0 -218 70l32 51q94 -61 192 -61q23 0 48.5 5t49.5 21.5t24 41.5q0 26 -28 41q-43 22 -148 22v60q8 0 24 -1.5t24 -1.5q107 0 107 52q0 27 -37.5 41t-68.5 14q-61 0 -142 -39l-29 53q51 26 85.5 36t84.5 10
q62 0 115.5 -30t53.5 -87q0 -43 -39 -76q60 -42 60 -94z" />
    <glyph glyph-name="acute" unicode="&#xb4;" horiz-adv-x="333" 
d="M253 684l-99 -110h-78l68 110h109z" />
    <glyph glyph-name="mu" unicode="&#xb5;" horiz-adv-x="796" 
d="M650 0h-67v54q-23 -24 -72 -46t-114 -22q-71 0 -111 15.5t-69 47.5v-195h-68v662h68v-317q0 -82 47.5 -113.5t134.5 -31.5q79 0 131.5 35t52.5 110v317h67v-516z" />
    <glyph glyph-name="paragraph" unicode="&#xb6;" horiz-adv-x="796" 
d="M687 0h-63v680h-81v-680h-66v320h-130q-38 0 -60.5 1.5t-53.5 10t-54 24.5q-41 28 -62 75t-21 100q0 108 70 169q31 28 65 37t83 9h373v-746zM477 389v291h-163q-149 0 -149 -147q0 -85 57 -123q32 -21 125 -21h130z" />
    <glyph glyph-name="periodcentered" unicode="&#xb7;" horiz-adv-x="370" 
d="M249 326q0 -26 -19 -44.5t-45 -18.5t-45 18.5t-19 44.5t18.5 45t44.5 19q27 0 46 -19t19 -45z" />
    <glyph glyph-name="cedilla" unicode="&#xb8;" horiz-adv-x="370" 
d="M302 -142q0 -83 -124 -83q-61 0 -121 19l23 46q57 -17 90 -17q19 0 33.5 8t14.5 25q0 15 -13.5 23t-29.5 8q-26 0 -45 -8l-21 27l76 104h55l-63 -86q18 4 38 4q37 0 62 -17.5t25 -52.5z" />
    <glyph glyph-name="one.superior" unicode="&#xb9;" horiz-adv-x="519" 
d="M290 266h-61v392h61v-392z" />
    <glyph glyph-name="ordmasculine" unicode="&#xba;" horiz-adv-x="500" 
d="M462 481q0 -84 -62.5 -133.5t-149.5 -49.5t-149.5 51t-62.5 137q0 82 63 132t146 50q86 0 150.5 -51.5t64.5 -135.5zM402 481q0 60 -46 94.5t-108 34.5q-59 0 -105 -34t-46 -91q0 -60 45.5 -94.5t107.5 -34.5t107 33t45 92z" />
    <glyph glyph-name="guillemotright" unicode="&#xbb;" horiz-adv-x="519" 
d="M465 263l-134 -196h-73l116 196l-116 193h73zM260 263l-134 -196h-72l115 196l-115 193h72z" />
    <glyph glyph-name="onequarter" unicode="&#xbc;" horiz-adv-x="1000" 
d="M906 99h-95v-99h-59v99h-275l-29 64l307 235h56v-239h95v-60zM732 697l-525 -720h-75l523 720h77zM238 260h-63v399h63v-399zM752 159v166l-225 -166h225z" />
    <glyph glyph-name="onehalf" unicode="&#xbd;" horiz-adv-x="1000" 
d="M892 279q0 -82 -103 -104q-15 -3 -44.5 -8.5t-44.5 -8.5q-82 -17 -97 -98h284v-60h-352q1 56 13.5 97t35.5 64.5t46.5 36t53.5 19.5q19 5 52.5 10t46.5 8q46 12 46 45q0 18 -12 31t-31 19t-35.5 8.5t-32.5 2.5q-43 0 -75 -12t-72 -40l-36 50q49 32 90.5 47.5t93.5 15.5
q65 0 119 -31.5t54 -91.5zM706 697l-525 -720h-75l524 720h76zM216 260h-67v399h67v-399z" />
    <glyph glyph-name="threequarters" unicode="&#xbe;" horiz-adv-x="1000" 
d="M990 99h-95v-99h-59v99h-275l-29 64l307 235h56v-239h95v-60zM838 697l-525 -720h-75l523 720h77zM430 381q0 -45 -32 -75.5t-73 -41.5t-85 -11q-123 0 -218 70l32 51q94 -61 192 -61q23 0 48.5 5t49.5 21.5t24 41.5q0 26 -28 41q-43 22 -148 22v60q8 0 24 -1.5t24 -1.5
q107 0 107 52q0 27 -37.5 41t-68.5 14q-61 0 -142 -39l-29 53q51 26 85.5 36t84.5 10q62 0 115.5 -30t53.5 -87q0 -43 -39 -76q60 -42 60 -94zM836 159v166l-225 -166h225z" />
    <glyph glyph-name="questiondown" unicode="&#xbf;" horiz-adv-x="556" 
d="M402 698q0 -26 -18.5 -45t-44.5 -19t-45 19t-19 45t19 44.5t45 18.5t44.5 -18.5t18.5 -44.5zM496 2q-72 -19 -176 -19q-51 0 -92.5 9t-78 28.5t-57 57.5t-20.5 91q0 102 109 185l101 77q24 18 24 56v75h66v-75q0 -35 -7 -56t-12.5 -27t-23.5 -19l-105 -81
q-38 -30 -57 -59.5t-19 -70.5q0 -39 14.5 -65.5t42.5 -39t56.5 -17t67.5 -4.5q80 0 167 24v-70z" />
    <glyph glyph-name="Agrave" unicode="&#xc0;" horiz-adv-x="833" 
d="M485 802h-77l-98 107h107zM815 0h-76l-131 266h-382l-131 -266h-76l365 746h69zM577 334l-158 326l-159 -326h317z" />
    <glyph glyph-name="Aacute" unicode="&#xc1;" horiz-adv-x="833" 
d="M533 912l-99 -110h-78l68 110h109zM815 0h-76l-131 266h-382l-131 -266h-76l365 746h69zM577 334l-158 326l-159 -326h317z" />
    <glyph glyph-name="Acircumflex" unicode="&#xc2;" horiz-adv-x="833" 
d="M554 802h-87l-49 57l-55 -57h-77l75 107h112zM815 0h-76l-131 266h-382l-131 -266h-76l365 746h69zM577 334l-158 326l-159 -326h317z" />
    <glyph glyph-name="Atilde" unicode="&#xc3;" horiz-adv-x="833" 
d="M578 911q-2 -51 -20.5 -78t-65.5 -27q-30 0 -81 15.5t-72 15.5q-18 0 -26 -8.5t-10 -27.5h-59q2 107 86 107q29 0 77.5 -17t70.5 -17q34 0 40 37h60zM815 0h-76l-131 266h-382l-131 -266h-76l365 746h69zM577 334l-158 326l-159 -326h317z" />
    <glyph glyph-name="Adieresis" unicode="&#xc4;" horiz-adv-x="833" 
d="M552 810h-92v93h92v-93zM375 810h-92v93h92v-93zM815 0h-76l-131 266h-382l-131 -266h-76l365 746h69zM577 334l-158 326l-159 -326h317z" />
    <glyph glyph-name="Aring" unicode="&#xc5;" horiz-adv-x="833" 
d="M526 912q0 -46 -33.5 -78.5t-79.5 -32.5q-47 0 -81 33.5t-34 80.5t34 80.5t81 33.5t80 -34.5t33 -82.5zM815 0h-76l-131 266h-382l-131 -266h-76l365 746h69zM472 912q0 25 -17.5 43.5t-42.5 18.5t-42 -17t-17 -42q0 -24 17 -41.5t41 -17.5q25 0 43 16t18 40zM577 334
l-158 326l-159 -326h317z" />
    <glyph glyph-name="AE" unicode="&#xc6;" horiz-adv-x="1308" 
d="M1228 0h-639v264h-299l-201 -264h-76l565 745h626v-70h-548v-257h299v-68h-299v-282h572v-68zM589 333v325l-246 -325h246z" />
    <glyph glyph-name="Ccedilla" unicode="&#xc7;" horiz-adv-x="926" 
d="M851 136q-157 -146 -341 -153l-43 -65q12 2 36 2q38 0 63.5 -19.5t25.5 -56.5q0 -46 -38 -69t-86 -23q-57 0 -124 23l22 50q55 -19 92 -19q19 0 33 8.5t14 26.5q0 17 -12.5 26t-29.5 9q-21 0 -45 -8l-22 29l58 87q-159 12 -264 120.5t-105 267.5q0 172 116.5 281
t289.5 109q110 0 196.5 -34t160.5 -111l-46 -49q-123 126 -307 126q-144 0 -243 -89.5t-99 -232.5q0 -139 98.5 -229.5t239.5 -90.5q168 0 313 134z" />
    <glyph glyph-name="Egrave" unicode="&#xc8;" horiz-adv-x="852" 
d="M515 802h-77l-98 107h107zM772 0h-639v745h615v-70h-548v-257h299v-68h-299v-282h572v-68z" />
    <glyph glyph-name="Eacute" unicode="&#xc9;" horiz-adv-x="852" 
d="M543 912l-99 -110h-78l68 110h109zM772 0h-639v746h615v-70h-548v-257h299v-68h-299v-283h572v-68z" />
    <glyph glyph-name="Ecircumflex" unicode="&#xca;" horiz-adv-x="852" 
d="M583 802h-87l-49 57l-55 -57h-77l75 107h112zM772 0h-639v745h615v-70h-548v-257h299v-68h-299v-282h572v-68z" />
    <glyph glyph-name="Edieresis" unicode="&#xcb;" horiz-adv-x="852" 
d="M575 810h-92v93h92v-93zM398 810h-92v93h92v-93zM772 0h-639v745h615v-70h-548v-257h299v-68h-299v-282h572v-68z" />
    <glyph glyph-name="Igrave" unicode="&#xcc;" horiz-adv-x="370" 
d="M245 802h-77l-98 107h107zM220 0h-66v745h66v-745z" />
    <glyph glyph-name="Iacute" unicode="&#xcd;" horiz-adv-x="370" 
d="M310 912l-99 -110h-78l68 110h109zM220 0h-66v745h66v-745z" />
    <glyph glyph-name="Icircumflex" unicode="&#xce;" horiz-adv-x="370" 
d="M323 802h-87l-49 57l-55 -57h-77l75 107h112zM220 0h-66v745h66v-745z" />
    <glyph glyph-name="Idieresis" unicode="&#xcf;" horiz-adv-x="370" 
d="M318 810h-92v93h92v-93zM141 810h-92v93h92v-93zM220 0h-66v745h66v-745z" />
    <glyph glyph-name="Eth" unicode="&#xd0;" horiz-adv-x="926" 
d="M835 374q0 -164 -104 -269t-256 -105h-353v352h-112v68h112v326h353q163 0 261.5 -102t98.5 -270zM766 372q0 146 -81 226t-210 80h-284v-258h260v-68h-260v-284h284q125 0 208 79t83 225z" />
    <glyph glyph-name="Ntilde" unicode="&#xd1;" horiz-adv-x="981" 
d="M665 911q-2 -51 -20.5 -78t-65.5 -27q-31 0 -81 15.5t-72 15.5q-18 0 -26 -8.5t-10 -27.5h-59q2 107 86 107q29 0 77.5 -17t70.5 -17q34 0 40 37h60zM822 0h-69l-525 638v-638h-68v746h68l526 -637v637h68v-746z" />
    <glyph glyph-name="Ograve" unicode="&#xd2;" horiz-adv-x="963" 
d="M545 802h-77l-98 107h107zM883 372q0 -166 -116 -277t-283 -111q-169 0 -286.5 111t-117.5 279q0 165 117 276t282 111q169 0 286.5 -110.5t117.5 -278.5zM815 370q0 138 -96.5 231t-235.5 93q-138 0 -237 -90.5t-99 -227.5q0 -141 96 -232.5t238 -91.5q140 0 237 89.5
t97 228.5z" />
    <glyph glyph-name="Oacute" unicode="&#xd3;" horiz-adv-x="963" 
d="M593 912l-99 -110h-78l68 110h109zM883 372q0 -166 -116 -277t-283 -111q-169 0 -286.5 111t-117.5 279q0 165 117 276t282 111q169 0 286.5 -110.5t117.5 -278.5zM815 370q0 138 -96.5 231t-235.5 93q-138 0 -237 -90.5t-99 -227.5q0 -141 96 -232.5t238 -91.5
q140 0 237 89.5t97 228.5z" />
    <glyph glyph-name="Ocircumflex" unicode="&#xd4;" horiz-adv-x="963" 
d="M613 802h-87l-49 57l-55 -57h-77l75 107h112zM883 372q0 -166 -116 -277t-283 -111q-169 0 -286.5 111t-117.5 279q0 165 117 276t282 111q169 0 286.5 -110.5t117.5 -278.5zM815 370q0 138 -96.5 231t-235.5 93q-138 0 -237 -90.5t-99 -227.5q0 -141 96 -232.5
t238 -91.5q140 0 237 89.5t97 228.5z" />
    <glyph glyph-name="Otilde" unicode="&#xd5;" horiz-adv-x="963" 
d="M637 911q-2 -51 -20.5 -78t-65.5 -27q-31 0 -81 15.5t-72 15.5q-18 0 -26 -8.5t-10 -27.5h-59q2 107 86 107q29 0 77.5 -17t70.5 -17q34 0 40 37h60zM883 372q0 -166 -116 -277t-283 -111q-169 0 -286.5 111t-117.5 279q0 165 117 276t282 111q169 0 286.5 -110.5
t117.5 -278.5zM815 370q0 138 -96.5 231t-235.5 93q-138 0 -237 -90.5t-99 -227.5q0 -141 96 -232.5t238 -91.5q140 0 237 89.5t97 228.5z" />
    <glyph glyph-name="Odieresis" unicode="&#xd6;" horiz-adv-x="963" 
d="M612 810h-92v93h92v-93zM435 810h-92v93h92v-93zM883 372q0 -166 -116 -277t-283 -111q-169 0 -286.5 111t-117.5 279q0 165 117 276t282 111q169 0 286.5 -110.5t117.5 -278.5zM815 370q0 138 -96.5 231t-235.5 93q-138 0 -237 -90.5t-99 -227.5q0 -141 96 -232.5
t238 -91.5q140 0 237 89.5t97 228.5z" />
    <glyph glyph-name="multiply" unicode="&#xd7;" 
d="M641 74l-40 -40l-157 156l-156 -156l-40 40l156 156l-156 157l40 40l156 -156l157 156l40 -40l-156 -157z" />
    <glyph glyph-name="Oslash" unicode="&#xd8;" horiz-adv-x="963" 
d="M883 372q0 -165 -116 -276.5t-282 -111.5q-143 0 -253 81l-106 -117l-46 41l105 117q-105 111 -105 267q0 165 116.5 277t281.5 112q133 0 236 -69l90 100l46 -42l-88 -97q121 -121 121 -282zM815 370q0 136 -99 233l-440 -489q87 -62 206 -62q139 0 236 90t97 228z
M668 642q-82 52 -186 52q-138 0 -236.5 -91t-98.5 -227q0 -57 23 -117t61 -103z" />
    <glyph glyph-name="Ugrave" unicode="&#xd9;" horiz-adv-x="963" 
d="M545 802h-77l-98 107h107zM813 269q0 -147 -92.5 -217t-244.5 -70q-146 0 -235 72.5t-89 214.5v476h68v-476q0 -219 264 -219q70 0 133.5 22.5t97.5 71.5q30 43 30 125v476h68v-476z" />
    <glyph glyph-name="Uacute" unicode="&#xda;" horiz-adv-x="963" 
d="M593 912l-99 -110h-78l68 110h109zM813 269q0 -147 -92.5 -217t-244.5 -70q-146 0 -235 72.5t-89 214.5v476h68v-476q0 -219 264 -219q70 0 133.5 22.5t97.5 71.5q30 43 30 125v476h68v-476z" />
    <glyph glyph-name="Ucircumflex" unicode="&#xdb;" horiz-adv-x="963" 
d="M619 802h-87l-49 57l-55 -57h-77l75 107h112zM813 269q0 -147 -92.5 -217t-244.5 -70q-146 0 -235 72.5t-89 214.5v476h68v-476q0 -219 264 -219q70 0 133.5 22.5t97.5 71.5q30 43 30 125v476h68v-476z" />
    <glyph glyph-name="Udieresis" unicode="&#xdc;" horiz-adv-x="963" 
d="M610 811h-92v93h92v-93zM433 811h-92v93h92v-93zM813 269q0 -147 -92.5 -217t-244.5 -70q-146 0 -235 72.5t-89 214.5v476h68v-476q0 -219 264 -219q70 0 133.5 22.5t97.5 71.5q30 43 30 125v476h68v-476z" />
    <glyph glyph-name="Yacute" unicode="&#xdd;" horiz-adv-x="778" 
d="M533 912l-99 -110h-78l68 110h109zM759 746l-333 -420v-326h-69v326l-339 420h89l285 -354l281 354h86z" />
    <glyph glyph-name="Thorn" unicode="&#xde;" horiz-adv-x="870" 
d="M776 381q0 -54 -21 -101t-62 -75q-23 -16 -54 -24.5t-53.5 -10t-60.5 -1.5h-330v-169h-69v746h69v-151h363q49 0 83 -9t65 -37q70 -61 70 -168zM707 382q0 145 -149 145h-363v-288h330q93 0 125 20q57 36 57 123z" />
    <glyph glyph-name="germandbls" unicode="&#xdf;" horiz-adv-x="1384" 
d="M1322 145q0 -46 -23 -79.5t-61 -51t-78 -25.5t-83 -8q-86 0 -170 23q-46 13 -75.5 27t-69.5 42l33 62q24 -18 36 -26q96 -61 240 -61q27 0 54.5 3.5t58.5 13t50 30t19 49.5q0 44 -35 65t-84 23q-53 2 -155 4q-71 2 -124.5 38.5t-53.5 104.5q0 42 21 74t56 48.5t72.5 24.5
t76.5 8q158 0 265 -72l-31 -61q-65 40 -109.5 52t-121.5 12q-24 0 -48 -3t-51.5 -11.5t-44.5 -26.5t-17 -44q0 -38 32.5 -56.5t73.5 -19.5l144 -3q51 -1 95 -16t76 -51.5t32 -88.5zM622 145q0 -46 -23 -79.5t-61 -51t-78 -25.5t-83 -8q-86 0 -170 23q-46 13 -75.5 27
t-69.5 42l33 62q24 -18 36 -26q96 -61 240 -61q27 0 54.5 3.5t58.5 13t50 30t19 49.5q0 44 -35 65t-84 23q-53 2 -155 4q-71 2 -124.5 38.5t-53.5 104.5q0 42 21 74t56 48.5t72.5 24.5t76.5 8q158 0 265 -72l-31 -61q-65 40 -109.5 52t-121.5 12q-24 0 -48 -3t-51.5 -11.5
t-44.5 -26.5t-17 -44q0 -38 32.5 -56.5t73.5 -19.5l144 -3q51 -1 95 -16t76 -51.5t32 -88.5z" />
    <glyph glyph-name="agrave" unicode="&#xe0;" horiz-adv-x="685" 
d="M405 575h-77l-98 107h107zM665 0h-71l-72 129h-357l-73 -129h-71l294 516h61zM484 197l-139 248l-141 -248h280z" />
    <glyph glyph-name="aacute" unicode="&#xe1;" horiz-adv-x="685" 
d="M468 685l-99 -110h-78l68 110h109zM665 0h-71l-72 129h-357l-73 -129h-71l294 516h61zM484 197l-139 248l-141 -248h280z" />
    <glyph glyph-name="acircumflex" unicode="&#xe2;" horiz-adv-x="685" 
d="M481 575h-87l-49 57l-55 -57h-77l75 107h112zM665 0h-71l-72 129h-357l-73 -129h-71l294 516h61zM484 197l-139 248l-141 -248h280z" />
    <glyph glyph-name="atilde" unicode="&#xe3;" horiz-adv-x="685" 
d="M512 684q-2 -51 -20.5 -78t-65.5 -27q-30 0 -81 15.5t-72 15.5q-18 0 -26 -8.5t-10 -27.5h-59q2 107 86 107q29 0 77.5 -17t70.5 -17q34 0 40 37h60zM665 0h-71l-72 129h-357l-73 -129h-71l294 516h61zM484 197l-139 248l-141 -248h280z" />
    <glyph glyph-name="adieresis" unicode="&#xe4;" horiz-adv-x="685" 
d="M481 583h-92v93h92v-93zM304 583h-92v93h92v-93zM665 0h-71l-72 129h-357l-73 -129h-71l294 516h61zM484 197l-139 248l-141 -248h280z" />
    <glyph glyph-name="aring" unicode="&#xe5;" horiz-adv-x="685" 
d="M459 685q0 -46 -33.5 -78.5t-79.5 -32.5q-47 0 -81 33.5t-34 80.5t34 80.5t81 33.5t80 -34.5t33 -82.5zM665 0h-71l-72 129h-357l-73 -129h-71l294 516h61zM405 685q0 25 -17.5 43.5t-42.5 18.5t-42 -17t-17 -42q0 -24 17 -41.5t41 -17.5q25 0 43 16t18 40zM484 197
l-139 248l-141 -248h280z" />
    <glyph glyph-name="ae" unicode="&#xe6;" horiz-adv-x="1038" 
d="M938 0h-465v127h-276l-114 -127h-77l456 516h465v-68h-386v-151h221v-68h-221v-160h397v-69zM473 195v245l-216 -245h216z" />
    <glyph glyph-name="ccedilla" unicode="&#xe7;" horiz-adv-x="741" 
d="M668 432l-39 -57q-109 90 -233 90q-100 0 -170.5 -55.5t-70.5 -152.5q0 -68 39 -116.5t96 -69t124 -20.5q121 0 224 73l27 -62q-99 -77 -247 -80l-41 -56q12 1 35 1q37 0 62.5 -17t25.5 -52q0 -45 -38.5 -65t-88.5 -20t-118 21l22 46q55 -17 90 -17q18 0 33 8t15 25
q0 15 -13 23t-29 8q-15 0 -45 -8l-22 27l58 79q-122 17 -199.5 86t-77.5 187q0 124 90 199.5t217 75.5q157 0 274 -101z" />
    <glyph glyph-name="egrave" unicode="&#xe8;" horiz-adv-x="685" 
d="M426 575h-77l-98 107h107zM585 0h-465v516h454v-68h-387v-151h222v-68h-222v-160h398v-69z" />
    <glyph glyph-name="eacute" unicode="&#xe9;" horiz-adv-x="685" 
d="M467 685l-99 -110h-78l68 110h109zM585 0h-465v516h454v-68h-387v-151h222v-68h-222v-160h398v-69z" />
    <glyph glyph-name="ecircumflex" unicode="&#xea;" horiz-adv-x="685" 
d="M484 575h-87l-49 57l-55 -57h-77l75 107h112zM585 0h-465v516h454v-68h-387v-151h222v-68h-222v-160h398v-69z" />
    <glyph glyph-name="edieresis" unicode="&#xeb;" horiz-adv-x="685" 
d="M481 583h-92v93h92v-93zM304 583h-92v93h92v-93zM585 0h-465v516h454v-68h-387v-151h222v-68h-222v-160h398v-69z" />
    <glyph glyph-name="igrave" unicode="&#xec;" horiz-adv-x="370" 
d="M242 575h-77l-98 107h107zM222 0h-68v516h68v-516z" />
    <glyph glyph-name="iacute" unicode="&#xed;" horiz-adv-x="370" 
d="M309 685l-99 -110h-78l68 110h109zM222 0h-68v516h68v-516z" />
    <glyph glyph-name="icircumflex" unicode="&#xee;" horiz-adv-x="370" 
d="M324 575h-87l-49 57l-55 -57h-77l75 107h112zM222 0h-68v516h68v-516z" />
    <glyph glyph-name="idieresis" unicode="&#xef;" horiz-adv-x="370" 
d="M321 583h-92v93h92v-93zM144 583h-92v93h92v-93zM222 0h-68v516h68v-516z" />
    <glyph glyph-name="eth" unicode="&#xf0;" horiz-adv-x="759" 
d="M655 255q0 -115 -69 -185t-184 -70h-290v231h-81v68h81v217h290q54 0 90 -10.5t72 -41.5q91 -79 91 -209zM588 256q0 89 -59 148q-27 27 -54.5 35.5t-70.5 8.5h-225v-149h176v-68h-176v-163h223q87 0 136.5 50.5t49.5 137.5z" />
    <glyph glyph-name="ntilde" unicode="&#xf1;" horiz-adv-x="796" 
d="M562 684q-2 -51 -20.5 -78t-65.5 -27q-30 0 -81 15.5t-72 15.5q-18 0 -26 -8.5t-10 -27.5h-59q2 107 86 107q29 0 77.5 -17t70.5 -17q34 0 40 37h60zM648 0h-67l-363 414v-414h-67v516h67l363 -411v411h67v-516z" />
    <glyph glyph-name="ograve" unicode="&#xf2;" horiz-adv-x="796" 
d="M448 575h-77l-98 107h107zM715 253q0 -126 -94 -199t-224 -73q-131 0 -223.5 76t-92.5 204q0 122 94 197.5t219 75.5q129 0 225 -77.5t96 -203.5zM647 253q0 99 -75.5 155.5t-177.5 56.5q-97 0 -171.5 -55.5t-74.5 -149.5q0 -99 74.5 -155t176.5 -56q100 0 174 53.5
t74 150.5z" />
    <glyph glyph-name="oacute" unicode="&#xf3;" horiz-adv-x="796" 
d="M513 685l-99 -110h-78l68 110h109zM715 253q0 -126 -94 -199t-224 -73q-131 0 -223.5 76t-92.5 204q0 122 94 197.5t219 75.5q129 0 225 -77.5t96 -203.5zM647 253q0 99 -75.5 155.5t-177.5 56.5q-97 0 -171.5 -55.5t-74.5 -149.5q0 -99 74.5 -155t176.5 -56
q100 0 174 53.5t74 150.5z" />
    <glyph glyph-name="ocircumflex" unicode="&#xf4;" horiz-adv-x="796" 
d="M533 575h-87l-49 57l-55 -57h-77l75 107h112zM715 253q0 -126 -94 -199t-224 -73q-131 0 -223.5 76t-92.5 204q0 122 94 197.5t219 75.5q129 0 225 -77.5t96 -203.5zM647 253q0 99 -75.5 155.5t-177.5 56.5q-97 0 -171.5 -55.5t-74.5 -149.5q0 -99 74.5 -155t176.5 -56
q100 0 174 53.5t74 150.5z" />
    <glyph glyph-name="otilde" unicode="&#xf5;" horiz-adv-x="796" 
d="M557 684q-2 -51 -20.5 -78t-65.5 -27q-31 0 -81 15.5t-72 15.5q-18 0 -26 -8.5t-10 -27.5h-59q2 107 86 107q29 0 77.5 -17t70.5 -17q34 0 40 37h60zM715 253q0 -126 -94 -199t-224 -73q-131 0 -223.5 76t-92.5 204q0 122 94 197.5t219 75.5q129 0 225 -77.5t96 -203.5z
M647 253q0 99 -75.5 155.5t-177.5 56.5q-97 0 -171.5 -55.5t-74.5 -149.5q0 -99 74.5 -155t176.5 -56q100 0 174 53.5t74 150.5z" />
    <glyph glyph-name="odieresis" unicode="&#xf6;" horiz-adv-x="796" 
d="M528 583h-92v93h92v-93zM351 583h-92v93h92v-93zM715 253q0 -126 -94 -199t-224 -73q-131 0 -223.5 76t-92.5 204q0 122 94 197.5t219 75.5q129 0 225 -77.5t96 -203.5zM647 253q0 99 -75.5 155.5t-177.5 56.5q-97 0 -171.5 -55.5t-74.5 -149.5q0 -99 74.5 -155
t176.5 -56q100 0 174 53.5t74 150.5z" />
    <glyph glyph-name="divide" unicode="&#xf7;" 
d="M497 389q0 -22 -15.5 -37t-36.5 -15q-22 0 -37.5 15t-15.5 37t15.5 37t36.5 15q22 0 37.5 -15t15.5 -37zM675 202h-461v57h461v-57zM497 73q0 -22 -15.5 -37t-36.5 -15q-22 0 -37.5 15t-15.5 37t15.5 37t36.5 15q22 0 37.5 -15t15.5 -37z" />
    <glyph glyph-name="oslash" unicode="&#xf8;" horiz-adv-x="796" 
d="M715 253q0 -125 -93.5 -198.5t-221.5 -73.5q-100 0 -181 45l-80 -89l-39 35l76 83q-95 84 -95 205q0 122 93 198t218 76q55 0 90 -9t85 -35l76 85l39 -35l-69 -77q102 -87 102 -210zM647 253q0 97 -80 159l-300 -333q39 -18 66 -24t68 -6q99 0 172.5 54t73.5 150z
M520 437q-64 28 -126 28q-98 0 -172 -56t-74 -150q0 -89 73 -154z" />
    <glyph glyph-name="ugrave" unicode="&#xf9;" horiz-adv-x="796" 
d="M460 575h-77l-98 107h107zM650 201q0 -111 -67.5 -163t-182.5 -52q-116 0 -183.5 51.5t-67.5 163.5v315h68v-315q0 -82 49 -114.5t136 -32.5q181 0 181 147v315h67v-315z" />
    <glyph glyph-name="uacute" unicode="&#xfa;" horiz-adv-x="796" 
d="M513 685l-99 -110h-78l68 110h109zM650 201q0 -111 -67.5 -163t-182.5 -52q-116 0 -183.5 51.5t-67.5 163.5v315h68v-315q0 -82 49 -114.5t136 -32.5q181 0 181 147v315h67v-315z" />
    <glyph glyph-name="ucircumflex" unicode="&#xfb;" horiz-adv-x="796" 
d="M527 575h-87l-49 57l-55 -57h-77l75 107h112zM650 201q0 -111 -67.5 -163t-182.5 -52q-116 0 -183.5 51.5t-67.5 163.5v315h68v-315q0 -82 49 -114.5t136 -32.5q181 0 181 147v315h67v-315z" />
    <glyph glyph-name="udieresis" unicode="&#xfc;" horiz-adv-x="796" 
d="M531 583h-92v93h92v-93zM354 583h-92v93h92v-93zM650 201q0 -111 -67.5 -163t-182.5 -52q-116 0 -183.5 51.5t-67.5 163.5v315h68v-315q0 -82 49 -114.5t136 -32.5q181 0 181 147v315h67v-315z" />
    <glyph glyph-name="yacute" unicode="&#xfd;" horiz-adv-x="574" 
d="M419 685l-99 -110h-78l68 110h109zM558 516l-235 -260v-256h-69v256l-234 260h89l180 -198l179 198h90z" />
    <glyph glyph-name="thorn" unicode="&#xfe;" horiz-adv-x="704" 
d="M628 259q0 -80 -50 -119.5t-133 -39.5h-249v-100h-68v516h68v-94h249q83 0 133 -41t50 -122zM561 258q0 53 -30.5 74t-85.5 21h-249v-185h249q55 0 85.5 19.5t30.5 70.5z" />
    <glyph glyph-name="ydieresis" unicode="&#xff;" horiz-adv-x="574" 
d="M421 583h-92v93h92v-93zM244 583h-92v93h92v-93zM558 516l-235 -260v-256h-69v256l-234 260h89l180 -198l179 198h90z" />
    <glyph glyph-name="dotlessi" unicode="&#x131;" horiz-adv-x="370" 
d="M222 0h-68v516h68v-516z" />
    <glyph glyph-name="Lslash" unicode="&#x141;" horiz-adv-x="722" 
d="M683 0h-555v270l-78 -55l-37 52l115 80v398h68v-350l191 133l36 -52l-227 -159v-248h487v-69z" />
    <glyph glyph-name="lslash" unicode="&#x142;" horiz-adv-x="574" 
d="M527 0h-404v194l-47 -34l-32 45l79 55v256h67v-209l96 68l32 -45l-128 -89v-173h337v-68z" />
    <glyph glyph-name="OE" unicode="&#x152;" horiz-adv-x="1294" 
d="M1214 0h-583q-9 0 -50.5 -8t-93.5 -8q-189 0 -298 101.5t-109 286.5t108 286.5t295 101.5q47 0 80 -7t38 -7h589v-70h-548v-256h299v-68h-299v-284h572v-68zM575 62v619q-38 12 -88 12q-157 0 -248.5 -82.5t-91.5 -236.5q0 -155 90 -238.5t242 -83.5q60 0 96 10z" />
    <glyph glyph-name="oe" unicode="&#x153;" horiz-adv-x="1040" 
d="M940 0h-410l-37 -10q-37 -9 -94 -9q-142 0 -230 70t-88 206q0 133 87 204t225 71q44 0 79 -8t41 -8h416v-68h-386v-151h221v-68h-221v-160h397v-69zM475 58v395q-47 10 -83 10q-112 0 -178 -49.5t-66 -156.5q0 -105 69.5 -156.5t185.5 -51.5q40 0 72 9z" />
    <glyph glyph-name="Scaron" unicode="&#x160;" horiz-adv-x="833" 
d="M559 909l-80 -107h-112l-76 107h76l55 -57l49 57h88zM779 214q0 -65 -35 -112.5t-92.5 -72t-115.5 -35.5t-118 -11q-101 0 -190 32q-52 19 -89.5 46t-86.5 75l47 49q71 -73 146.5 -103t178.5 -30q34 0 68.5 3.5t75 14.5t71 28t51 46.5t20.5 68.5q0 45 -28.5 78t-64.5 47
t-75 17q-7 1 -197 4q-62 1 -113 17t-88.5 58t-37.5 105q0 78 55 130t137 75q64 18 141 18q154 0 297 -107l-42 -51q-77 49 -133.5 70t-133.5 21q-56 0 -96 -10q-62 -14 -109.5 -51t-47.5 -94q0 -108 171 -113q10 0 90.5 -2t112.5 -4q100 -8 165.5 -62t65.5 -145z" />
    <glyph glyph-name="scaron" unicode="&#x161;" horiz-adv-x="685" 
d="M479 682l-80 -107h-112l-76 107h76l55 -57l49 57h88zM622 145q0 -46 -23 -79.5t-61 -51t-78 -25.5t-83 -8q-86 0 -170 23q-46 13 -75.5 27t-69.5 42l33 62q24 -18 36 -26q96 -61 240 -61q27 0 54.5 3.5t58.5 13t50 30t19 49.5q0 44 -35 65t-84 23q-53 2 -155 4
q-71 2 -124.5 38.5t-53.5 104.5q0 42 21 74t56 48.5t72.5 24.5t76.5 8q158 0 265 -72l-31 -61q-65 40 -109.5 52t-121.5 12q-24 0 -48 -3t-51.5 -11.5t-44.5 -26.5t-17 -44q0 -38 32.5 -56.5t73.5 -19.5l144 -3q51 -1 95 -16t76 -51.5t32 -88.5z" />
    <glyph glyph-name="Ydieresis" unicode="&#x178;" horiz-adv-x="778" 
d="M521 810h-92v93h92v-93zM344 810h-92v93h92v-93zM759 745l-333 -420v-325h-69v325l-339 420h89l285 -354l281 354h86z" />
    <glyph glyph-name="Zcaron" unicode="&#x17d;" horiz-adv-x="685" 
d="M502 909l-80 -107h-112l-76 107h76l55 -57l49 57h88zM672 0h-616l-37 72l554 606h-513v68h568l39 -71l-557 -604h562v-71z" />
    <glyph glyph-name="zcaron" unicode="&#x17e;" horiz-adv-x="537" 
d="M423 682l-80 -107h-112l-76 107h76l55 -57l49 57h88zM518 0h-458l-40 62l387 385h-361v69h425l39 -61l-387 -386h395v-69z" />
    <glyph glyph-name="florin" unicode="&#x192;" horiz-adv-x="704" 
d="M592 663l-10 -57q-32 4 -66 4q-63 0 -88.5 -23t-34.5 -75l-8 -48h159l-9 -59h-159l-40 -287q-17 -122 -38 -169.5t-59 -70.5q-39 -24 -180 -24l21 65q12 -2 45 -2q75 0 101 46q23 41 40 159l39 283h-137l11 59h134l12 65q26 139 176 139q31 0 91 -5z" />
    <glyph glyph-name="circumflex" unicode="&#x2c6;" horiz-adv-x="370" 
d="M319 575h-87l-49 57l-55 -57h-77l75 107h112z" />
    <glyph glyph-name="caron" unicode="&#x2c7;" horiz-adv-x="370" 
d="M319 682l-80 -107h-112l-76 107h76l55 -57l49 57h88z" />
    <glyph glyph-name="uni02C9" unicode="&#x2c9;" horiz-adv-x="370" 
d="M320 600h-270v59h270v-59z" />
    <glyph glyph-name="breve" unicode="&#x2d8;" horiz-adv-x="370" 
d="M333 689q-1 -61 -42.5 -88t-105.5 -27t-105.5 27t-42.5 88h71q4 -32 25 -42.5t56 -10.5q68 0 73 53h71z" />
    <glyph glyph-name="dotaccent" unicode="&#x2d9;" horiz-adv-x="370" 
d="M231 583h-92v93h92v-93z" />
    <glyph glyph-name="ring" unicode="&#x2da;" horiz-adv-x="370" 
d="M299 685q0 -46 -33.5 -78.5t-79.5 -32.5q-47 0 -81 33.5t-34 80.5t34 80.5t81 33.5t80 -34.5t33 -82.5zM245 685q0 25 -17.5 43.5t-42.5 18.5t-42 -17t-17 -42q0 -24 17 -41.5t41 -17.5q25 0 43 16t18 40z" />
    <glyph glyph-name="ogonek" unicode="&#x2db;" horiz-adv-x="370" 
d="M300 -150q-49 -46 -116 -46q-35 0 -58.5 21t-23.5 55q0 95 133 160l9 -15q-61 -75 -61 -133q0 -43 43 -43q34 0 63 21z" />
    <glyph glyph-name="tilde" unicode="&#x2dc;" horiz-adv-x="370" 
d="M352 684q-2 -51 -20.5 -78t-65.5 -27q-30 0 -81 15.5t-72 15.5q-18 0 -26 -8.5t-10 -27.5h-59q2 107 86 107q29 0 77.5 -17t70.5 -17q34 0 40 37h60z" />
    <glyph glyph-name="hungarumlaut" unicode="&#x2dd;" horiz-adv-x="370" 
d="M353 684l-99 -110h-79l68 110h110zM194 684l-98 -110h-79l68 110h109z" />
    <glyph glyph-name="uni03A9" unicode="&#x3a9;" horiz-adv-x="968" 
d="M922 0h-315v58q244 132 244 323q0 112 -95.5 191.5t-267.5 79.5q-152 0 -258.5 -74t-106.5 -197q0 -193 245 -323v-58h-317v58h227q-227 122 -227 330q0 144 122.5 234t313.5 90q207 0 321.5 -92t114.5 -230q0 -58 -21.5 -112.5t-57 -96t-74.5 -72.5t-81 -51h233v-58z
" />
    <glyph glyph-name="uni03BC" unicode="&#x3bc;" horiz-adv-x="796" 
d="M650 0h-67v54q-23 -24 -72 -46t-114 -22q-71 0 -111 15.5t-69 47.5v-195h-68v662h68v-317q0 -82 47.5 -113.5t134.5 -31.5q79 0 131.5 35t52.5 110v317h67v-516z" />
    <glyph glyph-name="pi" unicode="&#x3c0;" horiz-adv-x="1071" 
d="M922 57l15 -50q-36 -14 -77 -14q-138 0 -138 138v314h-362v-315q0 -75 -19 -130h-70q20 54 20 131v314q-86 -4 -155 -33q-1 3 -10.5 24.5t-11.5 27.5q32 14 84.5 25t98.5 11h643v-55h-149v-308q0 -89 87 -89q22 0 44 9z" />
    <glyph glyph-name="endash" unicode="&#x2013;" horiz-adv-x="500" 
d="M505 228h-510v57h510v-57z" />
    <glyph glyph-name="emdash" unicode="&#x2014;" horiz-adv-x="1000" 
d="M1006 228h-1011v57h1011v-57z" />
    <glyph glyph-name="uni2015" unicode="&#x2015;" horiz-adv-x="1000" 
d="M1000 -25h-1000l1 25h999v-25z" />
    <glyph glyph-name="quoteleft" unicode="&#x2018;" horiz-adv-x="389" 
d="M255 547q0 -22 -17.5 -37t-40.5 -15q-37 0 -60 31.5t-23 70.5q0 52 22 85t65 66q17 14 24 14q5 0 10 -6t5 -13q0 -5 -18 -16q-23 -16 -41.5 -41.5t-18.5 -49.5t34 -24q26 0 42.5 -19t16.5 -46z" />
    <glyph glyph-name="quoteright" unicode="&#x2019;" horiz-adv-x="389" 
d="M274 660q0 -52 -22 -85t-65 -66q-17 -14 -24 -14q-5 0 -10 6t-5 13q0 5 18 16q23 16 41.5 41.5t18.5 49.5t-34 24q-26 0 -42.5 19t-16.5 46q0 22 17.5 37t40.5 15q37 0 60 -31.5t23 -70.5z" />
    <glyph glyph-name="quotesinglbase" unicode="&#x201a;" horiz-adv-x="389" 
d="M265 8q0 -52 -22 -85t-65 -66q-17 -14 -24 -14q-5 0 -10 6t-5 13q0 5 18 16q23 16 41.5 41.5t18.5 49.5t-34 24q-26 0 -42.5 19t-16.5 46q0 22 17.5 37t40.5 15q37 0 60 -31.5t23 -70.5z" />
    <glyph glyph-name="quotedblleft" unicode="&#x201c;" horiz-adv-x="667" 
d="M518 547q0 -22 -17.5 -37t-40.5 -15q-37 0 -60 31.5t-23 70.5q0 52 22 85t65 66q18 14 24 14q5 0 10 -6t5 -13q0 -5 -18 -16q-23 -16 -41.5 -41.5t-18.5 -49.5t34 -24q26 0 42.5 -19t16.5 -46zM286 547q0 -22 -17.5 -37t-40.5 -15q-37 0 -60 31.5t-23 70.5q0 52 22 85
t65 66q17 14 24 14q5 0 10 -6t5 -13q0 -5 -18 -16q-23 -16 -41.5 -41.5t-18.5 -49.5t34 -24q26 0 42 -18.5t16 -46.5h1z" />
    <glyph glyph-name="quotedblright" unicode="&#x201d;" horiz-adv-x="667" 
d="M526 660q0 -52 -22 -85t-65 -66q-17 -14 -24 -14q-5 0 -10 6t-5 13q0 5 18 16q23 16 41.5 41.5t18.5 49.5t-34 24q-26 0 -42.5 19t-16.5 46q0 22 17.5 37t40.5 15q37 0 60 -31.5t23 -70.5zM294 660q0 -52 -22 -85t-65 -66q-17 -14 -24 -14q-5 0 -10 6t-5 13q0 5 18 16
q23 16 41.5 41.5t18.5 49.5t-34 24q-26 0 -42.5 19t-16.5 46q0 22 17.5 37t40.5 15q37 0 59.5 -31t22.5 -71h1z" />
    <glyph glyph-name="quotedblbase" unicode="&#x201e;" horiz-adv-x="667" 
d="M519 8q0 -52 -22 -85t-65 -66q-18 -14 -24 -14q-5 0 -10 6t-5 13q0 5 18 16q23 16 41.5 41.5t18.5 49.5t-34 24q-26 0 -42.5 19t-16.5 46q0 22 17.5 37t40.5 15q37 0 60 -31.5t23 -70.5zM287 8q0 -52 -22 -85t-65 -66q-18 -14 -24 -14q-5 0 -10 6t-5 13q0 5 18 16
q23 16 41.5 41.5t18.5 49.5t-34 24q-26 0 -42.5 19t-16.5 46q0 22 17.5 37t40.5 15q37 0 59.5 -31t22.5 -71h1z" />
    <glyph glyph-name="dagger" unicode="&#x2020;" horiz-adv-x="593" 
d="M515 466h-185v-466h-66v466h-186v68h185v211h66v-211h186v-68z" />
    <glyph glyph-name="daggerdbl" unicode="&#x2021;" horiz-adv-x="593" 
d="M515 175h-185v-176h-66v176h-186v68h186v263h-186v68h185v171h66v-171h186v-68h-186v-263h186v-68z" />
    <glyph glyph-name="bullet" unicode="&#x2022;" horiz-adv-x="500" 
d="M367 372q0 -48 -34 -81.5t-82 -33.5t-82 33.5t-34 81.5t34 82.5t82 34.5t82 -34.5t34 -82.5z" />
    <glyph glyph-name="ellipsis" unicode="&#x2026;" horiz-adv-x="1111" 
d="M990 46q0 -26 -19 -44.5t-45 -18.5t-45 18.5t-19 44.5t18.5 45t44.5 19q27 0 46 -19t19 -45zM620 46q0 -26 -19 -44.5t-45 -18.5t-45 18.5t-19 44.5t18.5 45t44.5 19q27 0 45.5 -19t18.5 -45h1zM249 46q0 -26 -19 -44.5t-45 -18.5t-45 18.5t-19 44.5t18.5 45t44.5 19
q27 0 45.5 -19t18.5 -45h1z" />
    <glyph glyph-name="perthousand" unicode="&#x2030;" horiz-adv-x="1765" 
d="M1697 193q0 -94 -73.5 -151t-171.5 -57t-172 56.5t-74 151.5q0 94 74 150.5t172 56.5q97 0 171 -57t74 -150zM1152 193q0 -94 -73.5 -151t-171.5 -57t-172 56.5t-74 151.5q0 94 74 150.5t172 56.5q97 0 170.5 -56.5t73.5 -150.5h1zM923 718l-554 -757h-81l554 757h81z
M551 461q0 -94 -73.5 -151t-171.5 -57t-172 56.5t-74 151.5q0 94 74 150.5t172 56.5q97 0 171 -57t74 -150zM1623 193q0 64 -51 103.5t-120 39.5t-120 -39.5t-51 -103.5q0 -65 50.5 -104t120.5 -39t120.5 39t50.5 104zM1078 193q0 64 -51 103.5t-120 39.5t-120 -39.5
t-51 -103.5q0 -65 50.5 -104t120.5 -39q69 0 119.5 39t50.5 104h1zM477 461q0 64 -51 103.5t-120 39.5t-120 -39.5t-51 -103.5q0 -65 50.5 -104t120.5 -39q69 0 119.5 39t50.5 104h1z" />
    <glyph glyph-name="guilsinglleft" unicode="&#x2039;" horiz-adv-x="315" 
d="M261 67h-72l-134 196l134 193h72l-115 -193z" />
    <glyph glyph-name="guilsinglright" unicode="&#x203a;" horiz-adv-x="315" 
d="M260 263l-134 -196h-72l115 196l-115 193h72z" />
    <glyph glyph-name="fraction" unicode="&#x2044;" horiz-adv-x="299" 
d="M463 697l-525 -720h-74l524 720h75z" />
    <glyph glyph-name="Euro" unicode="&#x20ac;" 
d="M827 120q-146 -137 -322 -137q-118 0 -211.5 68t-126.5 177h-111l9 49h90q-2 26 -2 47q0 23 1 32h-98l11 51h96q29 117 124.5 189t221.5 72q190 0 315 -131l-46 -49q-108 111 -264 111q-99 0 -175.5 -52.5t-104.5 -139.5h392l-11 -51h-392q-2 -18 -2 -32q0 -30 4 -47h376
l-11 -49h-349q31 -78 104.5 -126.5t163.5 -48.5q143 0 271 117z" />
    <glyph glyph-name="uni2105" unicode="&#x2105;" horiz-adv-x="870" 
d="M864 149q0 -74 -57.5 -119.5t-143.5 -45.5q-87 0 -143 47t-56 128q0 59 54.5 108t143.5 49q88 0 145 -49t57 -118zM750 766l-569 -801l-55 -1l570 802h54zM383 703l-29 -42q-25 19 -36.5 26.5t-42 18t-66.5 10.5q-64 0 -101.5 -33.5t-37.5 -82.5q0 -47 39 -81.5
t108 -34.5q35 0 64.5 8t41.5 15t37 23l21 -44q-32 -20 -47.5 -28.5t-46 -16t-69.5 -7.5q-94 0 -148.5 48.5t-54.5 119.5q0 54 31.5 92.5t74 55t87.5 16.5q98 0 175 -63zM809 147q0 52 -41 85.5t-106 33.5q-63 0 -103 -34.5t-40 -77.5q0 -53 40 -86.5t105 -33.5
q67 0 106 32.5t39 80.5z" />
    <glyph glyph-name="afii61289" unicode="&#x2113;" horiz-adv-x="684" 
d="M564 70q-86 -83 -182 -83q-70 0 -107 42q-34 37 -34 111v113q-51 -47 -80 -73q-5 7 -15.5 21t-14.5 20q106 95 110 98v223q0 85 36.5 135.5t103.5 50.5q59 0 84.5 -35t25.5 -73q0 -66 -32 -124t-95 -124q-49 -54 -57 -63v-167q0 -101 91 -101q64 0 132 68q12 -13 34 -39z
M431 603q0 37 -14 54t-35 17q-75 0 -75 -130v-167q28 33 50 63q74 97 74 163z" />
    <glyph glyph-name="trademark" unicode="&#x2122;" horiz-adv-x="741" 
d="M669 457h-46v205l-112 -172l-112 172v-205h-46v289h47l111 -177l112 177h46v-289zM298 703h-103v-246h-46v246h-104v43h253v-43z" />
    <glyph glyph-name="Omega" unicode="&#x2126;" horiz-adv-x="968" 
d="M922 0h-315v58q244 132 244 323q0 112 -95.5 191.5t-267.5 79.5q-152 0 -258.5 -74t-106.5 -197q0 -193 245 -323v-58h-317v58h227q-227 122 -227 330q0 144 122.5 234t313.5 90q207 0 321.5 -92t114.5 -230q0 -58 -21.5 -112.5t-57 -96t-74.5 -72.5t-81 -51h233v-58z
" />
    <glyph glyph-name="estimated" unicode="&#x212e;" horiz-adv-x="813" 
d="M794 388h-595v-270q92 -87 211 -87q48 0 89 11t68.5 25.5t55 41.5t42.5 46.5t38 52.5q5 -3 41 -25q-58 -94 -134 -144.5t-200 -50.5q-164 0 -270 117.5t-106 283.5q0 170 105 286t279 116q114 0 201.5 -56.5t132 -147.5t42.5 -199zM629 431v232q-39 34 -96.5 59
t-114.5 25q-136 0 -219 -85v-231h430z" />
    <glyph glyph-name="onethird" unicode="&#x2153;" horiz-adv-x="1000" 
d="M905 119q0 -65 -59 -96.5t-130 -31.5q-122 0 -219 70l33 51q92 -61 192 -61q23 0 48 5t49 21.5t24 41.5q0 29 -28 41q-40 22 -147 22v60q8 0 24 -1.5t24 -1.5q106 0 106 52q0 19 -21.5 32.5t-44 18t-39.5 4.5q-62 0 -143 -39l-29 53q52 26 86.5 36t84.5 10
q61 0 114.5 -30t53.5 -87q0 -43 -38 -76q59 -42 59 -94zM694 697l-525 -720h-74l523 720h76zM200 260h-62v399h62v-399z" />
    <glyph glyph-name="uni2160" unicode="&#x2160;" horiz-adv-x="352" 
d="M210 0h-68v668h68v-668z" />
    <glyph glyph-name="uni2164" unicode="&#x2164;" horiz-adv-x="704" 
d="M700 668l-315 -668h-69l-312 668h78l270 -590l270 590h78z" />
    <glyph glyph-name="uni2169" unicode="&#x2169;" horiz-adv-x="630" 
d="M629 0h-83l-211 298l-211 -298h-82l251 357l-218 311h82l178 -252l177 252h84l-220 -311z" />
    <glyph glyph-name="partialdiff" unicode="&#x2202;" horiz-adv-x="831" 
d="M727 447q0 -98 -28 -173q-45 -127 -137.5 -207t-218.5 -80q-106 0 -174.5 61t-68.5 162q0 65 23 117t58 83t81 51.5t88 28t83 7.5q85 0 143.5 -33t77.5 -77h3q2 16 2 57q0 92 -57.5 159.5t-158.5 67.5q-39 0 -82.5 -12t-72.5 -31q-4 8 -25 49q79 50 194 50
q117 0 193.5 -78.5t76.5 -201.5zM643 316q-14 50 -64.5 88.5t-132.5 38.5q-73 0 -133.5 -22t-102 -75.5t-41.5 -132.5q0 -70 48.5 -120t129.5 -50q100 0 183 77.5t113 195.5z" />
    <glyph glyph-name="Delta" unicode="&#x2206;" horiz-adv-x="929" 
d="M857 0h-792v36q59 111 177.5 332t177.5 332h81q60 -111 178 -332t178 -332v-36zM767 62q-188 352 -283 528q-5 10 -9 20.5t-7.5 20.5t-5.5 15h-4q-13 -37 -23 -54q-47 -88 -142 -264.5t-142 -265.5h616z" />
    <glyph glyph-name="product" unicode="&#x220f;" horiz-adv-x="1049" 
d="M923 -230h-70v870h-657v-870h-70v930h797v-930z" />
    <glyph glyph-name="summation" unicode="&#x2211;" horiz-adv-x="903" 
d="M887 -230h-873v31q57 49 162 138t191 162t163 138q-81 70 -243 212t-243 212v37h810v-58h-686q76 -67 228.5 -201.5t228.5 -201.5q-50 -43 -219.5 -187.5t-261.5 -223.5h743v-58z" />
    <glyph glyph-name="minus" unicode="&#x2212;" 
d="M675 202h-461v57h461v-57z" />
    <glyph glyph-name="uni2215" unicode="&#x2215;" horiz-adv-x="299" 
d="M463 697l-525 -720h-74l524 720h75z" />
    <glyph glyph-name="uni2219" unicode="&#x2219;" horiz-adv-x="370" 
d="M249 326q0 -26 -19 -44.5t-45 -18.5t-45 18.5t-19 44.5t18.5 45t44.5 19q27 0 46 -19t19 -45z" />
    <glyph glyph-name="radical" unicode="&#x221a;" horiz-adv-x="857" 
d="M806 729q-110 -247 -328 -741h-45q-150 240 -225 359q-12 -8 -36.5 -24.5t-36.5 -24.5l-18 39q16 11 54.5 36.5t59.5 39.5q21 -33 100.5 -161.5t123.5 -197.5q33 75 92.5 212.5t108.5 250t93 212.5h57z" />
    <glyph glyph-name="infinity" unicode="&#x221e;" horiz-adv-x="1171" 
d="M1102 297q0 -85 -57 -145.5t-171 -60.5q-83 0 -156 44t-129 120h-2q-59 -79 -133.5 -121.5t-156.5 -42.5q-111 0 -168 57.5t-57 141.5q0 89 57 148t165 59q170 0 293 -165h2q51 68 124 116.5t157 48.5q107 0 169.5 -54t62.5 -146zM1042 292q0 65 -39.5 108t-127.5 43
q-137 0 -256 -149q50 -69 118 -109t140 -40q86 0 125.5 43t39.5 104zM555 293q-50 74 -120.5 112t-140.5 38q-78 0 -120 -43t-42 -109q0 -63 46.5 -105t115.5 -42q72 0 140.5 39.5t120.5 109.5z" />
    <glyph glyph-name="integral" unicode="&#x222b;" horiz-adv-x="676" 
d="M575 676q-32 16 -75 16q-66 0 -97.5 -34t-31.5 -92v-632q0 -98 -53 -142.5t-135 -44.5q-65 0 -102 17q10 28 17 54q36 -15 80 -15q60 0 92 33t32 94v634q0 91 50 138t135 47q62 0 106 -20q-1 -4 -8 -23t-10 -30z" />
    <glyph glyph-name="approxequal" unicode="&#x2248;" 
d="M745 425q-37 -44 -78 -68.5t-99 -24.5q-62 0 -132 40q-72 40 -119 40q-69 0 -131 -77l-42 41q40 46 77.5 69.5t93.5 23.5q69 0 135 -38q69 -42 121 -42q67 0 132 76zM745 211q-37 -44 -78 -68.5t-99 -24.5q-62 0 -132 40q-72 40 -119 40q-69 0 -131 -77l-42 41
q40 46 77.5 69.5t93.5 23.5q69 0 135 -38q69 -42 121 -42q67 0 132 76z" />
    <glyph glyph-name="notequal" unicode="&#x2260;" 
d="M727 157h-331l-85 -156h-63l84 156h-171v57h206l87 159h-293v57h326l86 157h62l-85 -157h177v-57h-211l-87 -159h298v-57z" />
    <glyph glyph-name="lessequal" unicode="&#x2264;" 
d="M727 0h-566v57h566v-57zM727 128l-566 224v31l566 223v-62l-448 -174v-3l448 -176v-63z" />
    <glyph glyph-name="greaterequal" unicode="&#x2265;" 
d="M727 0h-566v57h566v-57zM727 351l-566 -223v63l449 173v3l-449 177v62l566 -224v-31z" />
    <glyph glyph-name="lozenge" unicode="&#x25ca;" horiz-adv-x="843" 
d="M781 350q-56 -58 -168.5 -175t-168.5 -175h-40q-37 38 -154 160.5t-182 188.5l336 351h40q56 -58 168.5 -174.5t168.5 -175.5zM706 349q-188 200 -281 300q-48 -50 -142 -150l-141 -150q95 -100 283 -300q46 50 140 150z" />
    <glyph glyph-name="A.alt" unicode="&#xe000;" horiz-adv-x="833" 
d="M823 0h-76l-131 266h-386l-131 -266q-19 -38 -33.5 -60.5t-39 -48.5t-59.5 -38.5t-81 -12.5q-11 0 -33 2t-28 2l3 65q8 0 24.5 -2t24.5 -2q29 0 51 7.5t36.5 16.5t30.5 32.5t24.5 39.5t27.5 54l342 695h68zM581 334l-158 340l-159 -340h317z" />
    <glyph glyph-name="Dquote" unicode="&#xe001;" horiz-adv-x="1185" 
d="M1091 662q0 -31 -11.5 -59.5t-28 -47.5t-34 -33.5t-30.5 -21.5t-17 -7q-8 0 -8 10q0 3 14 14t30 24.5t30 37t14 48.5q0 10 -12.5 12.5t-30.5 4t-27 6.5q-19 12 -27.5 24t-8.5 37t18.5 40t44.5 15q31 0 57.5 -29t26.5 -75zM827 375q0 -65 -23 -130.5t-64.5 -120.5
t-106.5 -89.5t-142 -34.5h-373v750h373q101 0 180 -57.5t117.5 -142t38.5 -175.5zM759 375q0 50 -18 102.5t-50.5 99t-85 76t-114.5 29.5h-305v-614h305q116 0 192 95.5t76 211.5z" />
    <glyph glyph-name="Oquote" unicode="&#xe002;" horiz-adv-x="1222" 
d="M1133 662q0 -31 -11.5 -59.5t-28 -47.5t-34 -33.5t-30.5 -21.5t-17 -7q-8 0 -8 10q0 3 14 14t30 24.5t30 37t14 48.5q0 10 -12.5 12.5t-30.5 4t-27 6.5q-19 12 -27.5 24t-8.5 37t18.5 40t44.5 15q31 0 57.5 -29t26.5 -75zM892 375q0 -169 -114.5 -280t-287.5 -111
t-287.5 111t-114.5 280t114.5 280t287.5 111q174 0 288 -111t114 -280zM824 375q0 133 -93.5 228t-240.5 95t-240.5 -95t-93.5 -228t93.5 -228t240.5 -95t240.5 95t93.5 228z" />
    <glyph glyph-name="ampersand.alt" unicode="&#xe003;" horiz-adv-x="667" 
d="M600 375l-76 4q1 -3 9.5 -17.5t11 -19.5l9.5 -19t10 -21.5t8 -21t6.5 -24l3.5 -24.5t2 -27q0 -100 -66 -160.5t-190 -60.5q-120 0 -197 63t-77 169q0 91 48 139.5t120 65.5v2q-104 44 -104 131q0 80 69.5 124t153.5 44q86 0 162 -45l-42 -56q-49 38 -114 38t-109.5 -26
t-44.5 -78q0 -33 22 -57t59 -36.5t75 -17.5t81 -5h170v-64zM514 206q0 23 -4.5 45.5t-14.5 44t-16 33t-18 31.5l-12 19h-111q-19 0 -31 -0.5t-36.5 -3.5t-41.5 -9t-38.5 -18t-35 -29t-22.5 -44t-9 -61q0 -80 58 -125t150 -45q84 0 133 42t49 120z" />
    <glyph glyph-name="c.superior" unicode="&#xe004;" horiz-adv-x="556" 
d="M519 367q-34 -22 -53.5 -33t-72.5 -27t-110 -16q-121 0 -191 66.5t-70 166.5q0 92 72.5 159t188.5 67q128 0 232 -75l-29 -43l-16 9q-17 9 -26.5 14t-31.5 14t-39.5 14t-42 9t-47.5 4q-97 0 -152 -50.5t-55 -121.5q0 -84 63 -131.5t144 -47.5q86 0 207 66z" />
    <glyph glyph-name="capostraphe" unicode="&#xe005;" horiz-adv-x="1019" 
d="M870 433l-38 -57q-31 25 -55 40.5t-74 32.5t-104 17q-111 0 -176 -61.5t-65 -147.5t66.5 -145.5t187.5 -59.5q21 0 40.5 1.5t37 5t30.5 5.5t27.5 8.5t22.5 9.5t21.5 11t17 10.5t17.5 11.5t15 10l27 -62q-103 -79 -255 -79q-150 0 -236.5 78.5t-86.5 197.5q0 66 28 119.5
t73.5 86.5t98.5 50.5t106 17.5q156 0 274 -101zM220 662q0 -31 -11.5 -59.5t-28 -47.5t-34 -33.5t-30.5 -21.5t-17 -7q-8 0 -8 10q0 3 13.5 14t30.5 24.5t30.5 37t13.5 48.5q0 10 -12.5 12.5t-30.5 4t-27 6.5q-19 12 -27.5 24t-8.5 37t18.5 40t44.5 15q31 0 57.5 -29
t26.5 -75z" />
    <glyph glyph-name="nd" unicode="&#xe006;" horiz-adv-x="1259" 
d="M1167 437q0 -100 -66 -160t-190 -60h-222v435h222q114 0 185 -61t71 -154zM525 217h-54l-325 351v-351h-55v435h54l325 -359v359h55v-435zM1112 433q0 82 -56 123t-145 41h-167v-325h167q92 0 146.5 41t54.5 120z" />
    <glyph glyph-name="orn.001" unicode="&#xe007;" horiz-adv-x="1296" 
d="M1234 252q0 -42 -17 -84.5t-49 -81t-87 -62.5t-123 -24q-88 0 -162 44t-161 126q-103 94 -144 123q-87 61 -169 61q-89 0 -151 -57t-62 -135q0 -66 32 -100t76 -34q33 0 52 39q-22 4 -40.5 21t-18.5 51q0 22 16.5 38t35.5 16q35 0 52.5 -22.5t17.5 -57.5q0 -41 -34.5 -77
t-78.5 -36q-42 0 -74 17t-49.5 44t-25.5 57t-8 61q0 41 17 84t49 82t87 63.5t123 24.5q48 0 98.5 -17.5t100.5 -51.5t86.5 -64.5t83.5 -74.5q75 -70 136.5 -107.5t130.5 -37.5q90 0 151.5 56.5t61.5 131.5q0 66 -32 100.5t-76 34.5q-33 0 -51 -40q21 -4 39.5 -20.5
t18.5 -50.5q0 -22 -16.5 -38.5t-35.5 -16.5q-34 0 -52 22.5t-18 57.5q0 41 34.5 77.5t79.5 36.5q80 0 118 -55t38 -124z" />
    <glyph glyph-name="orn.002" unicode="&#xe008;" horiz-adv-x="1296" 
d="M1234 179q0 -31 -8 -61t-25.5 -57t-49.5 -44t-74 -17q-44 0 -78.5 36t-34.5 77q0 35 17.5 57.5t52.5 22.5q19 0 35.5 -16t16.5 -38q0 -34 -18.5 -51t-40.5 -21q19 -39 52 -39q44 0 76 34t32 100q0 78 -62 135t-151 57q-53 0 -110.5 -28.5t-88 -53.5t-96.5 -86
q-12 -11 -18 -16q-87 -82 -161 -126t-162 -44q-68 0 -123 24t-87 62.5t-49 81t-17 84.5q0 69 38 124t118 55q45 0 79.5 -36.5t34.5 -77.5q0 -35 -18 -57.5t-52 -22.5q-19 0 -35.5 16.5t-16.5 38.5q0 34 18.5 50.5t39.5 20.5q-18 40 -51 40q-44 0 -76 -34.5t-32 -100.5
q0 -75 61.5 -131.5t151.5 -56.5q69 0 130.5 37.5t136.5 107.5q47 44 83.5 74.5t86.5 64.5t100.5 51.5t98.5 17.5q68 0 123 -24.5t87 -63.5t49 -82t17 -84z" />
    <glyph glyph-name="r.period" unicode="&#xe009;" horiz-adv-x="741" 
d="M750 370q0 -27 -18.5 -45.5t-45.5 -18.5t-45.5 18.5t-18.5 45.5q0 26 18.5 45t45.5 19q26 0 45 -19t19 -45zM542 314h-65l-128 175h-216v-175h-55v436h288q70 0 115 -32.5t45 -100.5q0 -94 -112 -124zM471 618q0 77 -105 77h-233v-151h233q105 0 105 74z" />
    <glyph glyph-name="rd" unicode="&#xe00a;" horiz-adv-x="1259" 
d="M1166 437q0 -100 -66 -160t-190 -60h-222v435h222q114 0 185 -61t71 -154zM555 217h-64l-128 175h-216v-175h-55v435h288q70 0 115 -32.5t45 -100.5q0 -95 -113 -123zM1111 433q0 82 -56 123t-145 41h-167v-325h167q92 0 146.5 41t54.5 120zM486 521q0 76 -106 76h-233
v-150h233q106 0 106 74z" />
    <glyph glyph-name="rs.period" unicode="&#xe00b;" horiz-adv-x="1315" 
d="M1326 370q0 -27 -18.5 -45.5t-45.5 -18.5t-45.5 18.5t-18.5 45.5q0 26 18.5 45t45.5 19q26 0 45 -19t19 -45zM1113 446q0 -62 -64.5 -102t-169.5 -40q-150 0 -246 73l27 47q88 -65 229 -65q73 0 121 24t48 64q0 34 -32 51.5t-73 19.5l-115 5q-39 2 -66.5 6.5t-53.5 16
t-39.5 34.5t-13.5 56q0 51 62 87.5t163 36.5q26 0 49.5 -2.5t42.5 -7t33.5 -9t27.5 -11t20.5 -10.5t16 -10t10.5 -7l-28 -45q-77 47 -169 47q-81 0 -127 -21.5t-46 -50.5q0 -49 132 -55l101 -5q66 -3 113 -36t47 -91zM542 314h-65l-128 175h-216v-175h-55v436h288
q70 0 115 -32.5t45 -100.5q0 -94 -112 -124zM471 618q0 77 -105 77h-233v-151h233q105 0 105 74z" />
    <glyph glyph-name="s.period" unicode="&#xe00c;" 
d="M799 370q0 -27 -18.5 -45.5t-45.5 -18.5t-45.5 18.5t-18.5 45.5q0 26 18.5 45t45.5 19q26 0 45 -19t19 -45zM543 446q0 -62 -64.5 -102t-169.5 -40q-150 0 -246 73l27 47q88 -65 229 -65q73 0 121 24t48 64q0 34 -32 51.5t-73 19.5l-115 5q-39 2 -66.5 6.5t-53.5 16
t-39.5 34.5t-13.5 56q0 55 62 92.5t163 37.5q26 0 49.5 -2.5t42.5 -7t33.5 -9t27.5 -11t20.5 -10.5t16 -10t10.5 -7l-28 -45q-77 47 -169 47q-83 0 -128 -22.5t-45 -55.5q0 -49 132 -55l101 -5q66 -3 113 -36t47 -91z" />
    <glyph glyph-name="sapostraphe" unicode="&#xe00d;" horiz-adv-x="981" 
d="M843 149q0 -73 -59.5 -119t-192.5 -46q-60 0 -112.5 9.5t-93 27.5t-58.5 28t-44 27l33 62q31 -22 55.5 -36.5t85 -32t129.5 -17.5q95 0 142 25.5t47 69.5q0 45 -35 66t-85 22l-155 3q-37 1 -74.5 12t-70.5 45.5t-33 85.5q0 68 60 110.5t164 42.5q159 0 267 -72l-31 -61
q-112 65 -222 65q-89 0 -129.5 -23.5t-40.5 -60.5q0 -74 106 -76l144 -3q83 -2 143 -40.5t60 -113.5zM219 662q0 -31 -11.5 -59.5t-28 -47.5t-34 -33.5t-30.5 -21.5t-17 -7q-8 0 -8 10q0 3 14 14t30 24.5t30 37t14 48.5q0 10 -12.5 12.5t-30.5 4t-27 6.5q-19 12 -27.5 24
t-8.5 37t18.5 40t44.5 15q31 0 57.5 -29t26.5 -75z" />
    <glyph glyph-name="th" unicode="&#xe00e;" horiz-adv-x="1100" 
d="M969 217h-55v190h-327v-190h-55v435h55v-190h327v190h55v-435zM426 597h-185v-380h-55v380h-185v55h425v-55z" />
    <glyph glyph-name="s_t" unicode="&#xfb06;" horiz-adv-x="1100" 
d="M925 597h-185v-380h-55v380h-185v55h425v-55zM425 345q0 -59 -65 -98.5t-169 -39.5q-75 0 -130.5 18t-115.5 55l27 47q92 -65 229 -65q72 0 120.5 23t48.5 60q0 66 -105 71l-115 5q-172 6 -172 110q0 55 61.5 93t162.5 38q26 0 49.5 -2.5t42.5 -7t33.5 -9t27.5 -11
t20.5 -10.5t16 -10t10.5 -7l-28 -45q-47 24 -83 35.5t-86 11.5q-82 0 -127 -22t-45 -54q0 -29 32.5 -40.5t98.5 -14.5l101 -5q67 -3 113.5 -36t46.5 -90z" />
  </font>
</defs>
</svg>
